あなたに恋をしてみました
chay

EXTREME

Level: 7
BPM: 137
Notes: 444

1
口口口口 |----|
口口口口 |----|
口口口口 |----|
口口口口 |----|
2
口口口① |①-②-|
⑧口②⑨ |③---|
⑥③口⑦ |--④⑤|
④口口⑤ |⑥⑦⑧⑨|
3
①口口口 |①-②-|
⑨②口⑧ |③---|
⑦口③⑥ |--④⑤|
⑤口口④ |⑥⑦⑧⑨|
4
口②①口 |①---|
口④③口 |②---|
口口口口 |③---|
口口口口 |④---|
5
④⑤口口 |①-②-|
口口③⑥ |③-④⑤|
口②口⑦ |--⑥-|
口口①⑧ |⑦-⑧-|
6
口口口① |①-②-|
⑧口②⑨ |③---|
⑥③口⑦ |--④⑤|
④口口⑤ |⑥⑦⑧⑨|
7
①口口口 |①-②-|
⑨②口⑧ |③---|
⑦口③⑥ |--④⑤|
⑤口口④ |⑥⑦⑧⑨|
8
口②①口 |①---|
口④③口 |②---|
口口口口 |③---|
口口口口 |④---|
9
④⑤口口 |①-②-|
口口③口 |③-④⑤|
口②口口
口口①口

口口⑧⑧
口口口口
口⑦口口 |--⑥-|
口口⑥口 |⑦-⑧-|
10
①口⑥口 |--①-|
口②口口 |②-③-|
口⑤③口 |④---|
口口口④ |⑤-⑥-|
11
①口口口 |--①-|
口口口② |②-③-|
③口口口
口口口口

⑤⑤口口
口口口口
口口口口 |④---|
口口口④ |--⑤-|
12
口⑤口① |--①-|
口口②口 |②-③-|
口③⑥口 |④---|
④口口口 |⑤-⑥-|
13
③口口④ |--①-|
口口①口 |②---|
口口口口 |--③-|
④②口③ |--④-|
14
⑤口口⑤ |----|
口④口口 |①-②-|
口③②① |③---|
口口口口 |④-⑤-|
15
口口口口 |--①-|
①口口① |--②-|
口口②口 |③---|
口③口口 |----|
16
口④口口 |①---|
口③口口 |②-③-|
口②口⑤ |④---|
口口口① |--⑤-|
17
口口口口 |--①-|
③口口口 |②-③-|
②口口口
口口①口

④⑤⑤口
口口口口
口口口口 |④---|
口⑥⑥口 |⑤--⑥|
18
⑤口口⑤ |----|
口口口口 |①-②-|
④③②① |③-④-|
口口口口 |--⑤-|
19
口①①口 |①---|
口口口口 |--②-|
口口口口
口口②口

口⑤⑤口
口口④口
口口③口 |③-④-|
口口口口 |--⑤-|
20
口④④口 |----|
口③口口 |--①-|
口②口口 |②-③-|
口①口口 |--④-|
21
口④④口 |----|
口口口③ |--①-|
口口口② |②-③-|
口口口① |--④-|
22
②口口③ |----|
口口④口 |①-②-|
①口口⑤ |--③-|
口口口口 |④-⑤-|
23
口口口口 |①---|
口口口③ |②-③-|
②口口口 |----|
口①①口 |----|
24
口口口口 |----|
③口③口 |①---|
口②口② |②---|
①口①口 |③---|
25
口口①口 |①-②-|
口②口口 |③-④-|
口口③口 |----|
口④口口 |----|
26
口口口① |①-②-|
口口②口 |③-④-|
口口⑥③ |----|
⑤口④口 |⑤-⑥-|
27
口口②口 |①-②-|
①③③口 |--③-|
口口口口
口口口口

口口④④
口口口口
口口口口 |----|
口口口口 |④---|
28
口口⑤④ |①-②-|
口③③口 |--③-|
①⑥口口 |--④-|
口②口口 |⑤-⑥-|
29
口口口口 |①---|
口口口② |②---|
①口口口
口口②口

口⑤口口
口④口口
⑤口③口 |③-④-|
口口口口 |--⑤-|
30
口口①口 |--①-|
口口②① |--②-|
口口③② |--③-|
口口口③ |----|
31
口口口口 |①---|
口口③口 |②-③-|
口②口口 |----|
口①①口 |----|
32
口口口口 |----|
口②①口 |①---|
③口口③ |②---|
口①②口 |③---|
33
口口①口 |①-②-|
口②口口 |③-④-|
口口③口 |----|
口④口口 |----|
34
口口口① |①-②-|
口⑤②口 |③-④-|
口口⑤③ |----|
口口④口 |⑤---|
35
口②①口 |①---|
②口口① |--②-|
①③③② |----|
口①②口 |③---|
36
①口②① |①---|
口③口口 |②-③-|
口口口口
口口口口

⑥口口⑥
口口口口
口口④口 |④-⑤-|
口⑤口口 |--⑥-|
37
口②①口 |----|
②③口① |--①-|
③④口口 |--②-|
④口口口 |③-④-|
38
口口④④ |①---|
口③口口 |--②-|
口口①口 |③---|
口口②① |④---|
39
口口口口 |①-②-|
口口②① |③-④-|
口口④③ |⑤---|
⑥口口⑤ |--⑥-|
40
⑥口口⑥ |①-②-|
④口口口 |③-④-|
②③口口 |⑤---|
口①⑤口 |⑥---|
41
口口口口 |----|
口⑤⑤口 |--①-|
④③口口 |②-③-|
口口②① |④-⑤-|
42
③口口③ |--①-|
口口口口 |--②-|
口②②口 |--③-|
口①①口 |----|
43
口口口口 |----|
口口①① |①---|
口口口口 |②---|
②②③口 |--③-|
44
口口口口 |①-②-|
②口口口 |--③-|
口①③③
口口口口

④④口口
⑤⑤口口
口口口口 |--④-|
口口口口 |--⑤-|
45
口口口① |①-②-|
口口②口 |③-④-|
口③口口
④口口口

⑦口口⑦
⑥⑥口口
口口口口 |⑤---|
口口⑤⑤ |⑥-⑦-|
46
口口口口 |----|
口③口④ |----|
⑤口②口 |①②③-|
口①口⑥ |④⑤⑥-|
47
口①口① |--①-|
口口②口 |--②-|
口①口①
②口口口

⑥口口⑥
③口口口
口口⑤口 |③-④-|
口④③口 |⑤-⑥-|
48
口口口口 |--①-|
口口②① |②-③-|
口③口口
口口口口

⑥口口口
口口⑦口
④口口口 |④-⑤-|
口口⑤口 |⑥-⑦-|
49
口口④口 |①-②-|
口口口④ |③-④-|
③口②口
①③口②

⑤⑦口⑦
口⑤口口
口口口口 |⑤---|
⑥口⑥口 |⑥-⑦-|
50
口口口口 |--①-|
①口口口 |②-③-|
口②③口
口口口口

口⑥⑦口
⑥口口⑦
口口口口 |④-⑤-|
口⑤口④ |⑥-⑦-|
51
口口口口 |--①-|
口①①⑤ |②---|
口②②④ |--③-|
口口口③ |④-⑤-|
52
⑥口口⑥ |--①-|
③口口口 |②-③-|
②⑤⑤口 |--④-|
①④④口 |⑤--⑥|
53
口口口口 |----|
口口①口 |①-②-|
口②口口 |----|
口口口口 |----|
54
④⑤⑤④ |①--②|
口③③口 |--③-|
②⑥⑥① |--④-|
②口口① |⑤--⑥|
55
口④④口 |--①-|
口口口口 |----|
口口口③ |--②-|
②①①口 |③-④-|
56
口口⑦⑦ |--①-|
口⑤②① |②-③-|
④③口口 |④-⑤-|
口口⑥⑥ |⑥-⑦-|
57
口③口口 |①-②-|
③口口口 |③-④-|
口②①④
②口④口

⑦⑦口⑤
口口⑤口
口口口口 |⑤---|
⑥⑥口口 |⑥-⑦-|
58
口⑦⑥口 |--①-|
口口口① |②-③-|
⑦③②⑥ |④-⑤-|
④口⑤口 |⑥-⑦-|
59
①③④① |--①-|
口口口口 |②---|
口口口口 |--③-|
④②②③ |--④-|
60
口口口① |----|
口口②口 |①-②-|
口口口口
口口口口

口口口⑤
口口口口
口③口口 |③---|
⑤口④口 |④-⑤-|
61
①④④口 |--①-|
④口口④ |--②-|
口②②口 |③-④-|
口③③① |----|
62
口④③② |①---|
口①①口 |②-③-|
口⑤⑤口 |④---|
口口口口 |--⑤-|
63
口口口口 |--①-|
②③口口 |②-③-|
口口口口
口①①口

⑤口口⑤
口口④口
口口口口 |④---|
口⑥⑥口 |⑤--⑥|
64
口⑤⑤口 |----|
口⑤⑤口 |①-②-|
④③②① |③-④-|
口口口口 |--⑤-|

不確定度: 0

最終更新:2017年08月03日 01:30