Bonjour, The World!!
中島由貴 feat.dj TAKA with S-C-U
meets Akhuta

BASIC

Level: 3
BPM: 158
Notes: 273

1
口口口口 |----|
口口②口 |----|
口①口口 |①---|
口口口口 |②---|
2
口口口① |①---|
口口口② |②---|
口口口③ |③---|
口口口④ |④---|
3
口口④口 |①---|
口口③口 |②---|
口口②口 |③---|
口口①口 |④---|
4
口①口口 |①---|
口②口口 |②---|
口③口口 |③---|
口④口口 |④---|
5
④口口口 |①---|
③口口口 |②---|
②口口口 |③---|
①口口口 |④---|
6
口口口口 |①---|
口①①口 |----|
口②②口 |②---|
口口口口 |----|
7
口口口口 |①---|
③口口① |②---|
④口口② |③---|
口口口口 |④---|
8
口口口口 |①---|
口口口口 |②---|
口口口口 |③---|
①②③④ |④---|
9
口口口口 |①---|
口②②口 |----|
口①①口 |②---|
口口口口 |----|
10
①口口口 |①---|
②口口口 |②---|
③口口口 |③---|
④口口口 |④---|
11
口④口口 |①---|
口③口口 |②---|
口②口口 |③---|
口①口口 |④---|
12
口口①口 |①---|
口口②口 |②---|
口口③口 |③---|
口口④口 |④---|
13
口口口④ |①---|
口口口③ |②---|
口口口② |③---|
口口口① |④---|
14
口口口口 |①---|
口①①口 |----|
口②②口 |②---|
口口口口 |----|
15
口口口口 |①---|
①口口① |----|
②口口② |②---|
口口口口 |----|
16
③③③③ |①---|
②口口② |----|
口①①口 |②---|
口口口口 |--③-|
17
口口口口 |----|
口口口口 |----|
口口口口 |----|
口口口口 |----|
18
口口口口 |①---|
口口口口 |②---|
口③④口 |③---|
口①②口 |④---|
19
口口口口 |①---|
口②口口 |----|
口③口① |②---|
口口口口 |③---|
20
口口口口 |①---|
口口口口 |②---|
口③④口 |③---|
口①②口 |④---|
21
口口口口 |①---|
口②口口 |----|
口③口① |②---|
口口口口 |③---|
22
口口口口 |①---|
口口口口 |②---|
口③④口 |③---|
口①②口 |④---|
23
口②③口 |①---|
口口口口 |----|
口口口① |②---|
口口口口 |③---|
24
口口口口 |①---|
口①②③ |②---|
口④④口 |③---|
口④④口 |--④-|
25
口口口口 |----|
口口口口 |----|
口口口口 |----|
口口口口 |----|
26
口口口口 |①---|
口口口口 |②---|
口③④口 |③---|
口①②口 |④---|
27
口口口口 |①---|
口②口口 |----|
口③口① |②---|
口口口口 |③---|
28
口口口口 |①---|
口口口口 |②---|
口③④口 |③---|
口①②口 |④---|
29
口口口口 |①---|
口②口口 |----|
口③口① |②---|
口口口口 |③---|
30
口口口口 |①---|
口口口口 |②---|
口③④口 |③---|
口①②口 |④---|
31
口②③口 |①---|
口口口口 |----|
口口口① |②---|
口口口口 |③---|
32
口口口口 |①---|
口①②③ |②---|
口口口口 |③---|
口口口口 |----|
33
口口口口 |①---|
②②口口 |----|
口①①口 |②---|
口口口口 |----|
34
口口口口 |①---|
口口①① |----|
口②②口 |②---|
口口口口 |----|
35
口口口口 |①---|
口口口口 |----|
口②口口 |②---|
口①①口 |----|
36
口口口口 |①---|
口口口口 |----|
口口①口 |②---|
口②口口 |----|
37
口口口口 |①---|
口口口口 |----|
口口口口 |----|
口口①口 |----|
38
口口口口 |①---|
③口口口 |----|
①①②② |②---|
口口口口 |③---|
39
口口口口 |①---|
口①②③ |②---|
口口口④ |③---|
口口口口 |④---|
40
口口口口 |①---|
④口口口 |②---|
③②①口 |③---|
口口口口 |④---|
41
②②口口 |①---|
口①口口 |----|
口口口口 |②---|
口口口口 |----|
42
口口①① |①---|
口②②口 |----|
口口口口 |②---|
口口口口 |----|
43
口②口口 |①---|
口口口口 |----|
口①①口 |②---|
口口口口 |----|
44
口口①口 |①---|
口②口口 |----|
口口口口 |②---|
口口口口 |----|
45
①口口口 |①---|
②口口口 |②---|
③口口口 |③---|
④口口口 |④---|
46
口口口口 |①---|
口口口口 |----|
口②②口 |②---|
口①①口 |----|
47
口②③口 |①---|
口①①口 |----|
口口口口 |②---|
口口口口 |③---|
48
①口口① |①---|
口②②口 |--②-|
口口口口
口口口口

③③③③
口口口口
口口口口 |----|
口口口口 |--③-|
49
口口口口 |----|
口②口② |----|
口口①口 |①---|
口①口口 |②---|
50
①口口口 |①---|
②口口口 |②---|
③口口口 |③---|
④口口口 |④---|
51
口口口① |①---|
口口口② |②---|
口口口③ |③---|
口口口④ |④---|
52
口口口口 |①---|
口②①口 |②---|
口④③口 |③---|
口口口口 |④---|
53
①口口① |①---|
口口口口 |----|
口口口口 |----|
口口口口 |----|
54
口口口口 |----|
口②口口 |①---|
口口①口 |②---|
口口口口 |----|
55
口口口口 |----|
口口②口 |①---|
口①口口 |②---|
口口口口 |----|
56
口①口口 |①---|
口②口口 |②---|
口③口口 |③---|
口④口口 |④---|
57
口口①口 |①---|
口口②口 |②---|
口口③口 |③---|
口口④口 |④---|
58
①口口口 |①---|
②口口口 |②---|
③口口口 |③---|
④口口口 |④---|
59
口口口① |①---|
口口口② |②---|
口口口③ |③---|
口口口④ |④---|
60
口口口口 |①---|
口口口口 |②---|
口④③口 |③---|
口②①口 |④---|
61
①口口① |①---|
口口口口 |----|
口口口口 |----|
口口口口 |----|
62
口①②口 |----|
口③口口 |①---|
口口口口 |②---|
口口口口 |③---|
63
口口口口 |①---|
口口①口 |②---|
口②③口 |③---|
口④口口 |④---|
64
口口口口 |①---|
口②②口 |----|
口②②口 |----|
口口①口 |--②-|
65
①口口② |----|
口③③口 |①---|
口口口口 |②---|
口口口口 |③---|
66
①口口口 |①---|
②口口口 |②---|
③口口口 |③---|
④口口口 |④---|
67
口④口口 |①---|
口③口口 |②---|
口②口口 |③---|
口①口口 |④---|
68
口口①口 |①---|
口口②口 |②---|
口口③口 |③---|
口口④口 |④---|
69
口口口④ |①---|
口口口③ |②---|
口口口② |③---|
口口口① |④---|
70
口口口口 |①---|
口①①口 |----|
口②②口 |②---|
口口口口 |----|
71
口口口口 |①---|
①口口① |----|
②口口② |②---|
口口口口 |----|
72
③③③③ |①---|
②口口② |----|
口①①口 |②---|
口口口口 |--③-|
73
口口口口 |----|
口①口① |----|
口口①口 |----|
口①口口 |--①-|

不確定度: 1

最終更新:2017年08月03日 01:28