eyes
小野秀幸

EXTREME

Level: 9
BPM: 300
Notes: 618

实际BPM: 150
1
口口口口 |----|
口口口口 |----|
口口口口 |----|
口口口口 |----|
2
口⑤⑤口 |----|
口⑥⑥口 |①②-③|
④⑦⑦② |④-⑤-|
③口口① |⑥-⑦-|
3
口⑤⑤口 |①②-③|
口⑥⑥口 |④-⑤-|
④⑩⑧② |⑥-⑦⑧|
③⑨⑦① |-⑨⑩-|
4
①口口① |①-②-|
②口口② |③-④⑤|
③口⑤③
口口④口

⑧口口⑧
⑨口口⑨
口⑦口口 |-⑥⑦-|
口⑥口口 |⑧-⑨-|
5
口⑤⑤口 |①②-③|
口口口口 |④-⑤-|
④口口②
③口口①

口口口口
口⑥⑥口
口⑦⑦⑨ |⑥-⑦-|
⑩口口⑧ |⑧⑨-⑩|
6
⑧②②⑧ |①-②-|
⑨③③⑨ |③-④⑤|
①⑦⑤口 |-⑥⑦-|
口⑥④口 |⑧-⑨-|
7
⑥口口⑥ |①-②③|
⑦口口⑦ |-④⑤-|
①⑤③① |⑥-⑦-|
⑧④②⑧ |⑧---|
8
⑤②③⑤ |①---|
④口口④ |②③--|
①口口① |④-⑤-|
⑥口口⑥ |--⑥-|
9
口口口口 |-①--|
②口口② |②---|
①⑤⑥① |③④--|
口③④口 |⑤⑥--|
10
口口口口 |①-②-|
③口口③ |--③-|
②口口②
①口口①

④口口④
口口口口
口口口口 |-④--|
⑤口口⑤ |⑤---|
11
⑤口口⑤ |①---|
④②③④ |②③--|
①口口① |④-⑤-|
⑥口口⑥ |--⑥-|
12
口口口口 |-①--|
口口口口 |----|
①口口① |----|
口口口口 |----|
13
⑨⑤口口 |----|
①⑦②口 |①②③④|
口③⑧④ |⑤-⑥-|
口口⑥口 |⑦⑧-⑨|
14
口口口口 |--①②|
口口口① |③---|
②口口口
口口口③

口口口口
口口口口
⑤口口口 |--④-|
口④④口 |--⑤-|
15
④口口③ |①②-③|
口①②口 |--④-|
口口口口 |----|
口口口口 |----|
16
口③④口 |①-②-|
口⑤⑦口 |③④⑤-|
⑥⑧⑨⑥ |⑥-⑦⑧|
①⑩⑪② |⑨⑩⑪-|
17
⑨⑤口口 |----|
①⑦②口 |①②③④|
口③⑧④ |⑤-⑥-|
口口⑥口 |⑦⑧-⑨|
18
口口口口 |--①②|
口口口① |③---|
②口口口
口口口③

口口口口
口口口口
⑤口口口 |--④-|
口④④口 |--⑤-|
19
③口口口 |①②-③|
口②①口 |--④-|
口口口⑥ |--⑤-|
口⑤⑤④ |--⑥-|
20
口口口口 |--①-|
口③③② |--②-|
口①①口 |--③-|
口口口口 |----|
21
①口口① |①---|
②口③口 |②③④⑤|
口④口⑤
口口口口

⑩⑥口口
口⑧口口
口口⑨口 |⑥-⑦-|
口口⑦口 |⑧⑨-⑩|
22
口口口口 |--①②|
口口口① |③---|
②口口口
口口口③

口口口口
口口口口
⑤口口口 |--④-|
口④④口 |--⑤-|
23
④口口③ |①②-③|
口①②口 |--④-|
口口口口 |----|
口口口口 |----|
24
口③④口 |①-②-|
口⑤⑦口 |③④⑤-|
⑥⑧⑨⑥ |⑥-⑦⑧|
①⑩⑪② |⑨⑩⑪-|
25
⑨⑤口口 |----|
①⑦②口 |①②③④|
口③⑧④ |⑤-⑥-|
口口⑥口 |⑦⑧-⑨|
26
口口口口 |--①②|
口口口① |③---|
②口口口
口口口③

口口口口
口口口口
⑤口口口 |--④-|
口④④口 |--⑤-|
27
③口口口 |①②-③|
口②①口 |--④-|
口口口⑥ |--⑤-|
口⑤⑤④ |--⑥-|
28
口口口口 |--①-|
口③③② |--②-|
口①①口 |--③-|
口口口口 |----|
29
①口②口 |----|
③口④口 |①②③④|
口⑤口⑥ |--⑤⑥|
口⑦口⑧ |⑦⑧--|
30
口①口② |①②③④|
口③口④ |--⑤⑥|
⑤口⑥口
口口口口

口⑨⑩口
口⑪⑫口
口口口口 |⑦⑧--|
⑦口⑧口 |⑨⑩⑪⑫|
31
⑤口口⑤ |①-②-|
口⑥⑦口 |③④-⑤|
②⑧口① |--⑥⑦|
口③④口 |⑧---|
32
口③④口 |①-②-|
口⑤⑦口 |③④⑤-|
⑥⑧⑨⑥ |⑥-⑦⑧|
①⑩⑪② |⑨⑩⑪-|
33
①口②口 |----|
③口④口 |①②③④|
口⑤口⑥ |--⑤⑥|
口⑦口⑧ |⑦⑧--|
34
口①口② |①②③④|
口③口④ |--⑤⑥|
⑤口⑥口
口口口口

口⑨⑩口
口⑪⑫口
口口口口 |⑦⑧--|
⑦口⑧口 |⑨⑩⑪⑫|
35
⑤口口⑤ |①-②-|
口⑥⑦口 |③④-⑤|
②⑧口① |--⑥⑦|
口③④口 |⑧---|
36
口口④④ |①---|
③③口口 |②---|
口口②② |③---|
①①口口 |④---|
37
口口口口 |----|
口口口口 |①②③④|
③⑦④⑧ |--⑤⑥|
①⑤②⑥ |⑦⑧--|
38
③⑦④⑧ |①②③④|
①⑤②⑥ |--⑤⑥|
口⑪⑫口 |⑦⑧--|
口⑨⑩口 |⑨⑩⑪⑫|
39
口③④口 |①-②-|
①⑥⑦② |③④-⑤|
⑤⑧口⑤ |--⑥⑦|
口口口口 |⑧---|
40
口③④口 |①-②-|
口⑤⑦口 |③④⑤-|
⑥⑧⑨⑥ |⑥-⑦⑧|
①⑩⑪② |⑨⑩⑪-|
41
①口②口 |----|
③口④口 |①②③④|
口⑤口⑥ |--⑤⑥|
口⑦口⑧ |⑦⑧--|
42
⑨①⑩② |①②③④|
⑪③⑫④ |--⑤⑥|
⑤口⑥口 |⑦⑧--|
⑦口⑧口 |⑨⑩⑪⑫|
43
口⑤口⑥ |--①②|
口⑦口⑧ |③④--|
⑨①⑩② |⑤⑥⑦⑧|
口③口④ |--⑨⑩|
44
口③④口 |①②--|
⑦⑤⑥⑦ |③④⑤⑥|
口⑧⑨口 |--⑦-|
①⑩②口 |⑧⑨⑩-|
45
②③口口 |①---|
口口⑥口 |②③-④|
口口⑤口 |--⑤-|
①口④① |--⑥-|
46
①①口口 |--①-|
口口口口 |②③④-|
口口④口 |----|
⑤⑤②③ |--⑤-|
47
口口②① |①②-③|
③⑤⑥④ |--④-|
③⑦⑧④ |--⑤⑥|
口口口口 |-⑦⑧-|
48
口口口口 |①②--|
口口口口 |----|
口口口口 |----|
口①②口 |----|
49
①⑥②⑦ |----|
③⑧④⑨ |①-②-③-|
⑤口口口 |④-⑤-⑥-|
口口口口 |⑦-⑧-⑨-|
50
②口③口 |①-②-③-|
④口⑤口 |④-⑤-⑥-|
⑥①口口
口口口口

⑫⑦口⑧
口⑨口⑩
口⑪口口 |⑦-⑧-⑨-|
口口口口 |⑩-⑪-⑫-|
51
口口①口 |①-②③--|
②口口口 |----|
口口③口
口口口口

口口⑤⑤
口口口口
口口口口 |--④-|
口口④④ |-⑤--|
52
口口口口 |①②--|
①②口口 |③-④⑤|
口④口⑤
③③口口

⑥口⑦口
⑧口⑨口
⑩口⑪口 |-⑥⑦⑧|
⑫口口口 |⑨⑩⑪⑫|
53
③口④② |①②--|
⑤口口② |----|
⑦口⑧⑥ |③④⑤-|
口口①口 |⑥-⑦⑧|
54
⑩②⑪③ |①-②③|
⑫④⑬⑤ |④⑤⑥⑦|
⑭⑥⑮⑦ |⑧⑨⑩⑪|
①⑧口⑨ |⑫⑬⑭⑮|
55
口①口② |①②③④|
口③口④ |⑤---|
⑥⑥口口 |----|
口口⑤⑤ |⑥---|
56
①①口口 |①---|
②②口口 |②---|
口口③③ |----|
口口口口 |③---|
57
②口③口 |①---|
④口⑤口 |②③④⑤|
口口口口
口口①①

口⑪口⑫
口口口口
⑥口⑦口 |⑥⑦⑧⑨|
⑧口⑨⑩ |⑩-⑪⑫|
58
⑤口⑥⑩ |①②③④|
⑦①⑧② |⑤⑥⑦⑧|
口③口④ |⑨--⑩|
⑨口口口 |----|
59
①⑨②⑩ |①②③④|
③⑪④⑫ |⑤⑥⑦⑧|
⑤⑬⑥⑭ |⑨⑩⑪⑫|
⑦⑮⑧⑯ |⑬⑭⑮⑯|
60
①口②⑨ |①②③④|
③口④⑨ |⑤⑥⑦⑧|
⑤口⑥口 |⑨---|
⑦口⑧口 |----|
61
口⑤⑤口 |①②-③|
口口口口 |④-⑤-|
④口口②
③口口①

口口口口
口⑥⑥口
口⑦⑦⑨ |⑥-⑦-|
⑩口口⑧ |⑧⑨-⑩|
62
⑧②②⑧ |①-②-|
⑨③③⑨ |③-④⑤|
①⑦⑤口 |-⑥⑦-|
口⑥④口 |⑧-⑨-|
63
口口口口 |①-②③|
口口口口 |-④⑤-|
①⑤③①
口④②口

⑥口口⑥
⑦口口⑦
口口口⑨ |⑥-⑦-|
⑩口口⑧ |⑧⑨-⑩|
64
口②②口 |①-②-|
口③③口 |③-④-|
①④④口
口口口口

口⑨⑨口
口口口口
⑧口口⑥ |⑤⑥-⑦|
⑦口口⑤ |⑧-⑨-|
65
口口口口 |①-②③|
口①①口 |-④⑤-|
口⑤③口
口④②口

⑥口口⑥
⑦口口⑦
⑧口⑩⑧ |⑥-⑦-|
口口⑨口 |⑧-⑨⑩|
66
③口口③ |-①②-|
④口口④ |③-④-|
口②口口 |----|
口①口口 |----|


不确定度: 0

最終更新:2012年11月11日 16:30