Phlox
Sota Fujimori 2nd Season

BASIC

Level: 5
BPM: 185
Notes: 348

1
口口口口 |----|
口口口口 |----|
口口口口 |----|
口口口口 |----|
2
口口口口 |①---|
口①口口 |----|
口口口口 |----|
口口②口 |--②-|
3
口口口口 |----|
口①①口 |----|
口口口口 |①---|
口口口口 |----|
4
口口口口 |①---|
口口②口 |----|
口口口口 |----|
口口①口 |--②-|
5
口口口口 |----|
口①口口 |①---|
口口②口 |②---|
口③口口 |③---|
6
口口①口 |①---|
口口②口 |----|
口③口口 |②---|
口口口口 |③---|
7
口口口口 |----|
口①①口 |----|
口口口口 |①---|
口口口口 |----|
8
口口口口 |①---|
口口口口 |----|
口口口口 |----|
口口①口 |----|
9
口口②口 |①---|
口口口口 |----|
口①口口 |②---|
口口口口 |----|
10
口口口口 |①---|
口①口口 |②---|
口②口口 |③---|
口③口口 |----|
11
口口口口 |①---|
口口口口 |②---|
④③②① |③---|
口口口口 |④---|
12
④口口④ |①---|
口口①口 |②---|
口口②口 |③---|
口口③口 |--④-|
13
口口口口 |----|
口①口口 |①---|
口②口口 |②---|
口③口口 |③---|
14
口①①口 |①---|
口口口口 |----|
口口②口 |②---|
口口③口 |③---|
15
口口口口 |----|
口口口口 |①---|
口①②③ |②---|
口口口口 |③---|
16
④口口④ |①---|
口①口口 |②---|
口②口口 |③---|
口③口口 |--④-|
17
口口口口 |----|
口口①口 |①---|
口口②口 |②---|
口口③口 |③---|
18
口口口口 |----|
口口口口 |----|
口①①口 |----|
口口口口 |①---|
19
口口口口 |①---|
④③②① |②---|
口口口口 |③---|
口口口口 |④---|
20
口口④口 |①---|
口口③口 |②---|
口口②口 |③---|
口口①口 |④---|
21
口口口口 |①---|
①②③④ |②---|
口口口口 |③---|
口口口口 |④---|
22
②口口② |----|
口口口口 |①---|
口①①口 |----|
口口口口 |②---|
23
口口口口 |①---|
口口口口 |②---|
④③②① |③---|
口口口口 |④---|
24
口口④口 |①---|
口口③口 |②---|
口口②口 |③---|
口口①口 |④---|
25
口口口口 |①---|
口口口口 |②---|
①②③④ |③---|
口口口口 |④---|
26
②口口② |----|
口①①口 |①---|
口口口口 |----|
口口口口 |②---|
27
口①①口 |①---|
口口口口 |----|
口口②口 |②---|
口③口口 |③---|
28
口口口口 |----|
口口②口 |----|
口①口口 |①---|
口口口口 |②---|
29
④口口④ |①---|
口①口口 |②---|
口口②口 |③---|
口③口口 |--④-|
30
口口口口 |----|
口口①口 |①---|
口②口口 |②---|
口口③口 |③---|
31
口口口口 |①---|
③口口③ |②---|
口口①口 |----|
口②口口 |--③-|
32
口口口口 |----|
口②口口 |----|
口口①口 |①---|
口口口口 |②---|
33
④口口④ |①---|
口口①口 |②---|
口②口口 |③---|
口口③口 |--④-|
34
口口口口 |----|
口口①口 |①---|
口②口口 |②---|
口口③口 |③---|
35
口口口口 |①---|
口③口① |②---|
④口②口 |③---|
口口口口 |④---|
36
口口口口 |①---|
①口③口 |②---|
口②口④ |③---|
口口口口 |④---|
37
口口口口 |①---|
口③口① |②---|
④口②口 |③---|
口口口口 |④---|
38
口口口口 |①---|
①口③口 |②---|
口②口④ |③---|
口口口口 |④---|
39
口④口口 |①---|
口口③口 |②---|
口②口口 |③---|
口口①口 |④---|
40
口口①口 |①---|
口②口口 |②---|
口口③口 |③---|
口④口口 |④---|
41
口④口口 |①---|
口口③口 |②---|
口②口口 |③---|
口口①口 |④---|
42
口口①口 |①---|
口②口口 |②---|
口口③口 |③---|
口④口口 |④---|
43
口口口口 |①---|
①口口① |----|
口②②口 |----|
口口口口 |②---|
44
口口口口 |----|
口口口口 |----|
口口口口 |----|
口口口口 |----|
45
口口口口 |①---|
口②②口 |----|
口①①口 |----|
口口口口 |②---|
46
口口口口 |----|
口口口口 |----|
口口口口 |----|
口口口口 |----|
47
口③③口 |①---|
②口口② |----|
口①①口 |--②-|
口口口口 |--③-|
48
口口口口 |----|
口口口口 |----|
①①①① |----|
口口口口 |①---|
49
口③③口 |①---|
②①①② |----|
口口口口 |--②-|
口口口口 |--③-|
50
口口口口 |----|
口口口口 |----|
口口口口 |----|
口口口口 |----|
51
①①①① |----|
口口口口 |----|
口口口口 |----|
口口口口 |①---|
52
口口口口 |①---|
口口⑤口 |②---|
口④口口 |③--④|
②口③① |--⑤-|
53
口口口口 |①---|
①③口② |②---|
口口④口 |③--④|
口⑤口口 |--⑤-|
54
口口⑤口 |①---|
口④口口 |②---|
②口③① |③--④|
口口口口 |--⑤-|
55
①口口② |①---|
口③口口 |②---|
口口④口 |③--④|
口⑤口口 |--⑤-|
56
口口口口 |①---|
口口⑤口 |②---|
②④口① |③--④|
口口③口 |--⑤-|
57
口口口口 |①---|
①③口② |②---|
口口④口 |③--④|
口⑤口口 |--⑤-|
58
④口口④ |①---|
口口口口 |②---|
②③③① |③--④|
口口口口 |----|
59
口口口口 |①---|
②口③① |②---|
口④口口 |③--④|
口口⑤口 |--⑤-|
60
①①①① |----|
口②口口 |①---|
口口③口 |②--③|
口④口口 |--④-|
61
口口口口 |①---|
口口⑤口 |②---|
②④口① |③--④|
口口③口 |--⑤-|
62
④口口④ |①---|
①口口② |②---|
口③③口 |③--④|
口口口口 |----|
63
口口口口 |①---|
口③③口 |②---|
②口口① |③--④|
④④④④ |----|
64
口口口口 |①---|
口口⑤口 |②---|
②④口① |③--④|
口口③口 |--⑤-|
65
①⑤口② |①---|
口口④口 |②---|
口③口口 |③--④|
口口口口 |--⑤-|
66
④口口④ |①---|
②口口① |②---|
口③③口 |③--④|
口口口口 |----|
67
口口口口 |①---|
口③口口 |②---|
①口④② |③--④|
口⑤口口 |--⑤-|
68
①①①① |----|
口口口② |①---|
③口口口 |②--③|
口口口④ |--④-|
69
⑤口口口 |①---|
口口口④ |②---|
③口口口 |③--④|
口①②口 |--⑤-|
70
④口口④ |①---|
口②①口 |②---|
口③③口 |③--④|
口口口口 |----|
71
口口口口 |①---|
口②①③ |②---|
④口口口 |③--④|
口口口⑤ |--⑤-|
72
①口口① |----|
②口口口 |①---|
口口口③ |②--③|
④口口口 |--④-|
73
口口口⑤ |①---|
④口口口 |②---|
口口口③ |③--④|
口②①口 |--⑤-|
74
④①②④ |①---|
口口口口 |②---|
口③③口 |③--④|
口口口口 |----|
75
口口口③ |①---|
④②①口 |②---|
口口口⑤ |③--④|
口口口口 |--⑤-|
76
口①①口 |----|
口口口口 |----|
口口口口 |----|
口口口口 |①---|
77
口口口口 |①---|
口①口口 |②---|
口②口口 |③---|
口③口口 |----|
78
口口口口 |①---|
口口口口 |②---|
④③②① |③---|
口口口口 |④---|
79
④口口④ |①---|
口口①口 |②---|
口口②口 |③---|
口口③口 |--④-|
80
口口口口 |----|
口①口口 |①---|
口②口口 |②---|
口③口口 |③---|
81
口①①口 |①---|
口口口口 |----|
口口②口 |②---|
口口③口 |③---|
82
口口口口 |----|
口口口口 |①---|
口①②③ |②---|
口口口口 |③---|
83
④口口④ |①---|
口①口口 |②---|
口②口口 |③---|
口③口口 |--④-|
84
口口口口 |----|
口口①口 |①---|
口口②口 |②---|
口口③口 |③---|
85
口口口口 |----|
口①口口 |①---|
口②口口 |②---|
口③口口 |③---|
86
口口口口 |----|
①口口① |①---|
②口口② |----|
口口口口 |②---|
87
③③③③ |----|
口口口口 |①---|
口②②口 |②---|
①口口① |③---|

不確定度: 0

最終更新:2017年08月03日 01:25