びいすと!
ビートまりおとARM

BASIC

Level: 4
BPM: 200
Notes: 202

1
口口口口 |----|
口口口口 |----|
口口口口 |----|
口口口口 |----|
2
口口口口 |①---|
口①口口 |----|
口口口口 |----|
口口口口 |----|
3
口①口口 |①---|
口口口口 |----|
口口口口 |----|
口口口口 |----|
4
口口口口 |①---|
口口①口 |----|
口口口口 |----|
口口口口 |----|
5
口口①口 |①---|
口口口口 |----|
口口口口 |----|
口口口口 |----|
6
口口口口 |①---|
口口口口 |----|
①口口口 |----|
口口口口 |----|
7
口口口口 |①---|
口口口口 |----|
口①口口 |----|
口口口口 |----|
8
口口口口 |①---|
口口②口 |----|
口口①口 |②---|
口口口口 |----|
9
口口口② |①---|
口口口① |----|
口口口口 |②---|
口口口口 |----|
10
口口口口 |①---|
①口口口 |----|
口口口口 |----|
口口口口 |----|
11
口口口口 |①---|
口口口① |----|
口口口口 |----|
口口口口 |----|
12
口口口口 |①---|
口口口口 |----|
①口口口 |----|
口口口口 |----|
13
口口口口 |①---|
口口口口 |----|
口口口① |----|
口口口口 |----|
14
口口口口 |①---|
①①口口 |----|
口口口口 |----|
口口口口 |----|
15
口口口口 |①---|
口口①① |----|
口口口口 |----|
口口口口 |----|
16
口口口口 |①---|
口②②口 |----|
口口口口 |②---|
口①①口 |----|
17
③口口③ |①---|
②口口② |②---|
①口口① |③---|
口口口口 |----|
18
口口口口 |①---|
口①口口 |----|
口口口口 |----|
口口口口 |----|
19
口口口口 |----|
口口口口 |----|
口口口口 |----|
口口口口 |----|
20
口口口口 |①---|
口口①口 |----|
口口口口 |----|
口口口口 |----|
21
口口口口 |----|
口口口口 |----|
口口口口 |----|
口口口口 |----|
22
口口口口 |①---|
口口口口 |----|
口①口口 |----|
口口口口 |----|
23
口口口口 |----|
口口口口 |----|
口口口口 |----|
口口口口 |----|
24
口口口口 |①---|
口口口口 |----|
口口①口 |----|
口口口口 |----|
25
口口口口 |----|
口口口口 |----|
口口口口 |----|
口口口口 |----|
26
①①口口 |①---|
口口口口 |----|
口口口口 |----|
口口口口 |----|
27
口口①① |①---|
口口口口 |----|
口口口口 |----|
口口口口 |----|
28
口口口口 |①---|
口②②口 |----|
①①口口 |②---|
口口口口 |----|
29
③口口③ |①---|
②口口② |----|
口口①① |②---|
口口口口 |③---|
30
口口口口 |①---|
口口口口 |----|
口①口口 |----|
口口口口 |----|
31
口口口口 |①---|
口口口口 |----|
口口①口 |----|
口口口口 |----|
32
口口口口 |①---|
口①②口 |----|
口口口口 |②---|
口口口口 |----|
33
口口口口 |①---|
口③④口 |②---|
口①②口 |③---|
口口口口 |④---|
34
口①①口 |①---|
口口口口 |----|
口口口口 |②---|
口②②口 |----|
35
口口口口 |①---|
①口口① |----|
②口口② |②---|
口口口口 |----|
36
口口口口 |①---|
口口口口 |----|
口口口口 |②---|
口口①② |----|
37
口②口口 |①---|
口②②口 |----|
口口②口 |②---|
口口①口 |----|
38
口口口口 |①---|
口②口① |----|
口①口② |②---|
口口口口 |----|
39
口②①口 |①---|
口口口① |----|
口口口② |②---|
口口口口 |----|
40
口口口口 |①---|
口②②口 |----|
口口口口 |②---|
口①①口 |----|
41
口口口口 |----|
①口口① |----|
口口口口 |----|
口口口口 |①---|
42
口口口口 |①---|
口口口口 |----|
|----|
口口口口 |----|
43
口口口口 |①---|
口①口口 |----|
口口口口
口口口口

口口口口

口口口 |----|
口口口口 |②-③-|
44
口口口口 |----|
口口口口 |----|
口口口口 |----|
口口口口 |----|
45
口口口口 |①---|
口口口 |----|
口①口口 |----|
口口口口 |②---|
46
口 |①---|
口 |----|
口 |----|
口 |----|
47
口口口口 |----|
口口口口 |----|
口口口口 |----|
口口口口 |----|
48
口①②口 |①---|
口口口口 |----|
口口口口 |②---|
口口口口 |----|
49
口口口口 |①---|
口②①口 |----|
口口口口 |②---|
口 |③---|
50
口口口口 |①---|
①口口口 |----|
口口口口 |----|
口口口口 |----|
51
口口口口 |①---|
口口口① |----|
口口口口 |----|
口口口口 |----|
52
口口口口 |①---|
口口口口 |----|
①口口口 |----|
口口口口 |----|
53
口口口口 |①---|
口口口口 |----|
口口口① |----|
口口口口 |----|
54
口口口口 |①---|
口①口口 |----|
口口口口 |----|
口口口口 |----|
55
口口口口 |①---|
口口①口 |----|
口口口口 |----|
口口口口 |----|
56
口口口口 |①---|
①口口口 |----|
口口口口 |----|
口口口口 |----|
57
口口口② |①---|
口口口① |②---|
口③③口 |③---|
口④④口 |④---|
58
①口口口 |①---|
口口口口 |----|
口口口口 |----|
口口口口 |----|
59
口口口① |①---|
口口口口 |----|
口口口口 |----|
口口口口 |----|
60
口口口口 |①---|
①口口口 |----|
口口口口 |----|
口口口口 |----|
61
口口口口 |①---|
口口口① |----|
口口口口 |----|
口口口口 |----|
62
口口口口 |①---|
口口口口 |----|
①口口口 |----|
口口口口 |----|
63
口口口口 |①---|
口口口口 |----|
口口口① |----|
口口口口 |----|
64
口口口口 |①---|
口口口口 |----|
口口口口 |----|
①口口口 |----|
65
口口口口 |①---|
口②②口 |----|
口口口口 |②---|
口口口① |----|
66
口口口口 |①---|
口口口口 |----|
口①①口 |----|
口口口口 |----|
67
口口口口 |①---|
①②③④ |②---|
口口口口 |③---|
口口口口 |④---|
68
口①口口 |①---|
口②③口 |--②-|
口口口口 |----|
口口口口 |③---|
69
口口口口 |①---|
①口口口 |--②-|
②口③口 |----|
口口口口 |③---|
70
口口口口 |①---|
口①口口 |--②-|
口②口③ |----|
口口口口 |③---|
71
口口口口 |①---|
口口口口 |②---|
口口口口 |③---|
①②③④ |④---|
72
口口口口 |①---|
口①口口 |--②-|
口②③口 |----|
口口口口 |③---|
73
口口口口 |①---|
①口口口 |--②-|
②口口③ |----|
口口口口 |③---|
74
口口口口 |①---|
口①口口 |--②-|
口②③口 |----|
口口口口 |③---|
75
①②③④ |①---|
口口口口 |②---|
口口口口 |③---|
口口口口 |④---|
76
口口口口 |①---|
③②口口 |②---|
④①口口 |③---|
口口口口 |④---|
77
口口口口 |①---|
口口②③ |②---|
口口①④ |③---|
口口口口 |④---|
78
④②②④ |①---|
口口口口 |②---|
口口口口 |③---|
③①①③ |④---|
79
口口口口 |①---|
②④④② |②---|
①③③① |③---|
口口口口 |④---|
80
①口口① |①---|
口口口口 |----|
②口口② |②---|
口口口口 |----|
81
口口口口 |①---|
口②②口 |----|
口口口口 |②---|
口①①口 |----|
82
②口口④ |①---|
口口口口 |②---|
①口口③ |③---|
口口口口 |④---|
83
口④④口 |①---|
口③③口 |②---|
口②②口 |③---|
口①①口 |④---|
84
口口 |①---|
口口 |----|
口口 |----|
口口 |----|
85
口口口口 |----|
口口口口 |----|
口口口口 |----|
口口口口 |----|
86
口口 |----|
口口口口 |----|
口口口口 |----|
口口口口 |--①-|
87
口口口口 |----|
口口口口 |----|
口①①口 |①---|
口口口口 |----|

不確定度: 0

最終更新:2017年08月03日 01:24