怪盗BisCoの予告状!!
Qrispy Joybox

BASIC

Level: 3
BPM: 160
Notes: 222

1
口口口口 |----|
口口口口 |----|
口口口口 |----|
口口口口 |----|
2
口口口口 |①---|
口口口口 |----|
口口口口 |----|
口口①口 |----|
3
口口口口 |①---|
口口口① |----|
口口口口 |----|
口口口口 |----|
4
口①口口 |①---|
口口口口 |----|
口口口口 |----|
口口口口 |----|
5
口口口口 |①---|
口口口口 |----|
①口口口 |----|
口口口口 |----|
6
口口口口 |①---|
口口口口 |----|
口口口口 |----|
口①①口 |----|
7
口口口口 |①---|
口口口① |----|
口口口① |----|
口口口口 |----|
8
口①①口 |①---|
口口口口 |----|
口口口口 |----|
口口口口 |----|
9
口③③口 |①---|
①口口口 |②---|
①②②口 |③---|
口口口口 |----|
10
口口口口 |①---|
①①口口 |----|
口口②② |②---|
口口口口 |----|
11
口口口口 |①---|
口口①口 |②---|
口②口口 |③---|
口口③口 |----|
12
口口口口 |①---|
①①口口 |----|
口口②② |②---|
口口口口 |----|
13
口口口口 |①---|
口口③口 |②---|
口②口口 |③---|
口口①口 |----|
14
口口口口 |①---|
①①口口 |----|
口口②② |②---|
口口口口 |----|
15
口口口口 |①---|
口口①口 |②---|
口②口口 |③---|
口口③口 |----|
16
口口口口 |①---|
口②②口 |----|
口①①口 |②---|
口口口口 |----|
17
④口口④ |①---|
③口口③ |②---|
②口口② |③---|
①口口① |④---|
18
口口口口 |①---|
口口②② |----|
①①口口 |②---|
口口口口 |----|
19
口口口口 |①---|
口①口口 |②---|
口口②口 |③---|
口③口口 |----|
20
口口口口 |①---|
口口②② |----|
①①口口 |②---|
口口口口 |----|
21
口口口口 |①---|
口③口口 |②---|
口口②口 |③---|
口①口口 |----|
22
口口口口 |①---|
口口②② |----|
①①口口 |②---|
口口口口 |----|
23
口口口口 |①---|
口①口口 |②---|
口口②口 |③---|
口③口口 |----|
24
口口口口 |①---|
口②②口 |----|
口①①口 |②---|
口口口口 |----|
25
①口口① |①---|
②口口② |②---|
③口口③ |③---|
④口口④ |④---|
26
口 |①---|
口 |----|
口 |----|
口口口口 |----|
27
口口口口 |①---|
口口口口 |----|
口 |----|
口口口口 |----|
28
口口 |①---|
口口 |----|
口口 |----|
口口口口 |----|
29
口口口口 |①---|
口口口口 |----|
口口 |----|
口口口口 |----|
30
口 |①---|
口 |----|
口 |----|
口口口口 |----|
31
口口口口 |①---|
口口口口 |----|
口 |----|
口口口口 |----|
32
口口口口 |①---|
口②②口 |----|
①口口① |②---|
口口口口 |----|
33
④口口④ |①---|
③口口③ |②---|
②口口② |③---|
①口口① |④---|
34
口口口口 |----|
口口口口 |----|
口口口口 |----|
口口口口 |----|
35
口口口口 |①---|
口①②口 |----|
口口口口 |②---|
口口口口 |----|
36
口口口口 |①---|
口口口口 |----|
口①②口 |②---|
口口口口 |----|
37
口口口口 |①---|
①口口② |----|
口口口口 |②---|
口口口口 |----|
38
口口口口 |①---|
口口口口 |----|
①口口② |②---|
口口口口 |----|
39
口口口口 |①---|
口①②口 |----|
口口口口 |②---|
口口口口 |----|
40
口口口口 |①---|
口口口口 |----|
口①②口 |②---|
口口口口 |----|
41
口口口口 |①---|
①口口② |----|
口口口口 |②---|
口口口口 |----|
42
④④④④ |①---|
②口口② |②---|
口③③口 |③---|
口①①口 |④---|
43
口口口口 |----|
口口口口 |----|
口口口口 |----|
口口口口 |----|
44
口口口口 |----|
口口口口 |----|
口口口口 |----|
口口口口 |----|
45
口④口口 |①---|
口③口口 |②---|
口②口口 |③---|
口①口口 |④---|
46
口口口口 |①---|
口口①① |----|
口口②② |②---|
口口口口 |----|
47
④口口口 |①---|
③口口口 |②---|
②口口口 |③---|
①口口口 |④---|
48
口口口口 |①---|
口口②② |----|
口口①① |②---|
口口口口 |----|
49
口④口口 |①---|
口③口口 |②---|
口②口口 |③---|
口①口口 |④---|
50
口口口口 |①---|
口口①① |----|
口口②② |②---|
口口口口 |----|
51
口口口口 |①---|
口口口口 |----|
口口口口 |②---|
①口口② |----|
52
口④④口 |①---|
口③③口 |②---|
口②②口 |③---|
口①①口 |④---|
53
口口④口 |①---|
口口③口 |②---|
口口②口 |③---|
口口①口 |④---|
54
①口口口 |①---|
口口口② |②---|
③口口口 |③---|
口口口④ |④---|
55
口④口口 |①---|
口③口口 |②---|
口②口口 |③---|
口①口口 |④---|
56
口口口① |①---|
②口口口 |②---|
口口口③ |③---|
④口口口 |④---|
57
口口④口 |①---|
口口③口 |②---|
口口②口 |③---|
口口①口 |④---|
58
①口口口 |①---|
口口口② |②---|
③口口口 |③---|
口口口④ |④---|
59
口口口口 |①---|
口口口口 |②---|
口③④口 |③---|
口①②口 |④---|
60
③③④④ |①---|
①①②② |②---|
口口口口 |③---|
口口口口 |④---|
61
口口口口 |①---|
口 |----|
口 |----|
口口口口 |----|
62
口口口口 |----|
口口口口 |----|
口口口口 |----|
口口口口 |----|
63
口口口口 |①---|
口口口口 |----|
口 |----|
口口口口 |----|
64
口口口口 |----|
口①②口 |----|
口口口口 |①---|
口口口口 |②---|
65
口①①口 |①---|
口口口口 |----|
口②③口 |②---|
口口口口 |③---|
66
①口口① |①---|
口口口口 |----|
口口口口 |②---|
口②③口 |③---|
67
口口口口 |①---|
①口口① |----|
口②②口 |②---|
口口口口 |----|
68
②口口② |①---|
口口口口 |----|
口口口口 |----|
口①①口 |②---|

不確定度: 0

最終更新:2017年08月03日 01:20