怪盗BisCoの予告状!!
Qrispy Joybox

ADVANCED

Level: 7
BPM: 160
Notes: 482

1
口口口口 |----|
口口口口 |----|
口口口口 |----|
口口口口 |----|
2
口⑦⑧口 |①-②-|
⑤口口⑥ |③-④-|
③口口④ |⑤-⑥-|
口①②口 |⑦-⑧-|
3
口⑦⑧口 |①-②-|
⑤口口⑥ |③-④-|
③口口④ |⑤-⑥-|
口①②口 |⑦-⑧-|
4
口⑦⑧口 |①-②-|
⑤口口⑥ |③-④-|
③口口④ |⑤-⑥-|
口①②口 |⑦-⑧-|
5
口口口口 |①-②-|
⑤⑦⑧⑥ |③-④-|
③⑨⑩④ |⑤-⑥-|
口①②口 |⑦⑧⑨⑩|
6
口⑦⑧口 |①-②-|
⑤口口⑥ |③-④-|
③口口④ |⑤-⑥-|
口①②口 |⑦-⑧-|
7
口⑦⑧口 |①-②-|
⑤口口⑥ |③-④-|
③口口④ |⑤-⑥-|
口①②口 |⑦-⑧-|
8
口⑦⑧口 |①-②-|
⑤口口⑥ |③-④-|
③口口④ |⑤-⑥-|
口①②口 |⑦-⑧-|
9
口口口② |①---|
口①口口 |②---|
口口①口
②口口口

③口口口
口④⑤口
口⑥⑦口 |③---|
口口口③ |④⑤⑥⑦|
10
口口口② |①-②-|
④口⑤③ |③--④|
口口口⑥ |--⑤-|
①口口⑦ |⑥-⑦-|
11
①④口口 |①-②-|
⑤口口⑤ |③--④|
⑥③口⑥ |--⑤-|
⑦口②⑦ |⑥-⑦-|
12
口⑤口④ |①-②-|
⑥②口口 |③--④|
⑦③口口 |--⑤-|
口口①口 |⑥-⑦-|
13
口口口④ |①-②-|
口口口口 |③--④|
口口③口 |----|
口②①口 |----|
14
口口口口 |--①-|
口④口③ |②--③|
⑤①口口 |--④-|
⑥②口口 |⑤-⑥-|
15
口口④① |①-②-|
⑤口口⑤ |③--④|
⑥口③⑥ |--⑤-|
⑦②口⑦ |⑥-⑦-|
16
口②口口 |①---|
口口①口 |----|
口①口口 |②---|
口口②口 |----|
17
②⑤⑥① |①---|
口③④口 |②---|
③⑤⑥④ |③-④-|
①口口② |⑤-⑥-|
18
口口口② |①-②-|
④口⑤③ |③--④|
口口口⑥ |--⑤-|
①口口⑦ |⑥-⑦-|
19
①④口口 |①-②-|
⑤口口⑤ |③--④|
⑥③口⑥ |--⑤-|
⑦口②⑦ |⑥-⑦-|
20
口⑤口④ |①-②-|
⑥②口口 |③--④|
⑦③口口 |--⑤-|
口口①口 |⑥-⑦-|
21
口口口④ |①-②-|
口口口口 |③--④|
口口③口 |----|
口②①口 |----|
22
口口口口 |--①-|
口④口③ |②--③|
⑤①口口 |--④-|
⑥②口口 |⑤-⑥-|
23
口口④① |①-②-|
⑤口口⑤ |③--④|
⑥口③⑥ |--⑤-|
⑦②口⑦ |⑥-⑦-|
24
口口口口 |①---|
②口①口 |----|
口①口② |②---|
口口口口 |----|
25
③③④④ |①-②-|
⑤⑤⑧⑧ |③-④-|
⑦⑦⑥⑥ |⑤-⑥-|
①①②② |⑦-⑧-|
26
口 |①---|
口 |----|
口 |----|
口 |--②-|
27
口口口口 |①---|
口口口① |----|
②②③③ |②---|
口 |③---|
28
口 |①---|
口 |----|
口 |----|
口 |--②-|
29
口口口口 |①---|
口口口① |----|
②②③③ |②---|
口 |③---|
30
口 |①---|
口 |----|
口 |----|
口 |--②-|
31
口口口口 |①---|
口口口① |----|
②②③③ |②---|
口 |③---|
32
②④④② |①---|
口口口口 |②---|
③口口③ |③---|
口①①口 |④---|
33
⑦⑦⑧⑧ |①-②-|
⑤⑤⑥⑥ |③-④-|
③③④④ |⑤-⑥-|
①①②② |⑦-⑧-|
34
口口口口 |----|
口①②口 |----|
口③④口 |----|
口口口口 |①②③④|
35
口④③② |①-②-|
口口口⑦ |③-④-|
口口口⑥ |⑤--⑥|
①口口⑤ |--⑦-|
36
②口口④ |①-②-|
口口口口 |③--④|
口③口口 |--⑤-|
⑤①⑥口 |--⑥-|
37
②③④口 |①-②-|
⑦口口口 |③-④-|
⑥口口口 |⑤--⑥|
⑤①口口 |--⑦-|
38
④口口① |①-②-|
口口③口 |③--④|
口口口口 |--⑤-|
口⑥②⑤ |--⑥-|
39
口④③② |①-②-|
口口口⑦ |③-④-|
口口口⑥ |⑤--⑥|
口口①⑤ |--⑦-|
40
②口口④ |①-②-|
口口口口 |③--④|
口③口口 |--⑤-|
⑤①⑥口 |--⑥-|
41
②③④口 |①-②-|
⑦口口口 |③-④-|
⑥口口口 |⑤--⑥|
⑤①口口 |--⑦-|
42
④口口③ |①---|
口②①口 |②---|
口①②口 |③---|
③口口④ |④---|
43
口口口口 |----|
口口口口 |----|
口口口口 |----|
口口口口 |----|
44
③口口② |①---|
口①①口 |----|
口①①口 |②---|
口口口口 |③---|
45
口口口⑤ |①-②-|
④口⑥口 |③-④-|
③⑦口口 |⑤--⑥|
②口口① |--⑦-|
46
|①-②-|
口口口口 |③--④|
口口③口
②口口①

口口⑤
口口口口
口口口口 |----|
口口口口 |⑤---|
47
口①口口 |①-②-|
口口⑦② |③-④-|
口⑥口③ |⑤--⑥|
⑤口口④ |--⑦-|
48
①口口② |①-②-|
口③口口 |③--④|
口口口口


口口口口
口口口口
口口口口 |----|
⑤口口 |⑤---|
49
④口口⑤ |①-②-|
③口⑥口 |③-④-|
②⑦口口 |⑤--⑥|
口口①口 |--⑦-|
50
|①-②-|
口口口口 |③--④|
口口③口
②口口①

口口⑤
口口口口
口口口口 |----|
口口口口 |⑤---|
51
口口口口 |①---|
口①①口 |----|
口②②口 |②---|
口口口口 |----|
52
口⑧⑦口 |①-②-|
⑥口口⑤ |③-④-|
④口口③ |⑤-⑥-|
口②①口 |⑦-⑧-|
53
口口口⑤ |①-②-|
④口⑥口 |③-④-|
③⑦口口 |⑤--⑥|
②口口① |--⑦-|
54
|①-②-|
口口口口 |③--④|
口口③口
②口口①

口口⑤
口口口口
口口口口 |----|
口口口口 |⑤---|
55
口①口口 |①-②-|
口口⑦② |③-④-|
口⑥口③ |⑤--⑥|
⑤口口④ |--⑦-|
56
①口口② |①-②-|
口③口口 |③--④|
口口口口


口口口口
口口口口
口口口口 |----|
⑤口口 |⑤---|
57
④口口⑤ |①-②-|
③口⑥口 |③-④-|
②⑦口口 |⑤--⑥|
口口①口 |--⑦-|
58
口口口口 |①-②-|
口④口口 |③-④-|
口口③口
②口口①

口口口⑤
⑥口口口
口口口⑦ |⑤-⑥-|
⑧口口口 |⑦-⑧-|
59
口口口口 |①---|
口口口 |----|
口口
口口

口口口口
口口
口口 |②---|
口 |----|
60
口⑤口口 |①-②-|
①口⑥② |③-④-|
③⑦口④ |⑤-⑥-|
口⑧ |⑦-⑧-|
61
口⑦⑧口 |①-②-|
⑤口口⑥ |③-④-|
③口口④ |⑤-⑥-|
口①②口 |⑦-⑧-|
62
口⑦⑧口 |①-②-|
⑤口口⑥ |③-④-|
③口口④ |⑤-⑥-|
口①②口 |⑦-⑧-|
63
口⑦⑧口 |①-②-|
⑤口口⑥ |③-④-|
③口口④ |⑤-⑥-|
口①②口 |⑦-⑧-|
64
口口口口 |①-②-|
⑤⑦⑧⑥ |③-④-|
③⑨⑩④ |⑤-⑥-|
口①②口 |⑦⑧⑨⑩|
65
口口口口 |①-②-|
⑤⑦⑧⑥ |③-④-|
③⑨⑩④ |⑤-⑥-|
口①②口 |⑦⑧⑨⑩|
66
口口口口 |①-②-|
⑤⑦⑧⑥ |③-④-|
③⑨⑩④ |⑤-⑥-|
口①②口 |⑦⑧⑨⑩|
67
③⑦⑧④ |①-②-|
口口口口 |③-④-|
口口口口 |⑤-⑥-|
⑤①②⑥ |⑦-⑧-|
68
口口口口 |①---|
|----|

口口口口

口口口口
口②口
口②口 |----|
口口口口 |②---|

不確定度: 0

最終更新:2017年08月03日 01:19