琥珀のくちづけ
日向美ビタースイーツ♪&日向美ブルームーン

ADVANCED

Level: 5
BPM: 173
Notes: 411

1
口口口口 |----|
口口口口 |----|
口口口口 |----|
口口口口 |----|
2
口口口口 |①-②-|
口①②③ |③---|
口口口口 |----|
口口口口 |----|
3
口口口口 |----|
①口口口 |①---|
口口②③ |②-③-|
口④口口 |--④-|
4
口口口口 |----|
口口口口 |----|
口口口口 |----|
口口口口 |----|
5
口口口口 |----|
口口口① |①---|
③②口口 |②-③-|
口口④口 |--④-|
6
①口口口 |----|
口②口口 |①---|
口口③口 |②---|
口口口口 |③---|
7
口口口口 |----|
①口口口 |①---|
口口②③ |②-③-|
口④口口 |--④-|
8
口口口① |----|
口口②口 |①---|
口③口口 |②---|
口口口口 |③---|
9
口口口① |①---|
口③④口 |②---|
口⑤⑥② |③-④-|
口口口口 |⑤-⑥-|
10
③口口④ |--①-|
①⑤⑤② |②-③-|
口口口口 |④---|
口口口口 |⑤---|
11
口口口口 |----|
口口口① |①---|
③②口口 |②-③-|
口口④口 |--④-|
12
口口口口 |----|
口口口口 |----|
口口口口 |----|
口口口口 |----|
13
口口口口 |----|
①口口口 |①---|
口口②③ |②-③-|
口④口口 |--④-|
14
口口口① |----|
口口②口 |①---|
口③口口 |②---|
口口口口 |③---|
15
口口口口 |----|
口口口① |①---|
③②口口 |②-③-|
口口④口 |--④-|
16
①口口口 |----|
口②口口 |①---|
口口③口 |②---|
口口口口 |③---|
17
①口口② |①-②-|
③口口④ |③-④-|
口⑤⑥口 |⑤-⑥-|
口⑦⑧口 |⑦-⑧-|
18
口③③口 |--①-|
②口口口 |②---|
①口口口 |③---|
口口口口 |----|
19
口口③口 |①---|
口口②口 |②-③-|
口口口口 |----|
口①口口 |----|
20
①口口② |----|
③口口④ |①-②-|
⑤口口⑥ |③-④-|
口口口口 |⑤-⑥-|
21
口口③口 |①---|
口口②口 |②-③-|
口口口口 |----|
口①口口 |----|
22
口③口口 |①---|
口②口口 |②-③-|
口口口口 |----|
口口①口 |----|
23
口④③口 |①---|
口口②口 |②-③-|
口口口口 |----|
口①口口 |--④-|
24
口口⑥⑥ |①---|
⑤①口口 |②---|
③口口④ |③-④-|
口口②口 |⑤-⑥-|
25
①口口口 |----|
口②口口 |----|
口口③口 |--①-|
口口口口 |②-③-|
26
口口口口 |①---|
口口口① |--②-|
②口口② |----|
口口口口 |----|
27
①口口口 |①---|
口口口口 |②---|
②口口口
口口口口

⑤口口口
口口口口
口口④③ |③-④-|
口口口口 |--⑤-|
28
口口口② |①-②-|
口①③口 |③-④-|
口④口口 |----|
口口口口 |----|
29
①口口口 |①-②-|
②口口口 |③---|
③口口口
口口口口

⑥口口口
口口口口
口口⑤④ |④-⑤-|
口口口口 |--⑥-|
30
口口口② |①-②-|
口①③口 |③-④-|
口④口口 |----|
口口口口 |----|
31
口口口口 |①-②-|
口②口④ |③-④-|
①口③口
口口口口

⑤口口口
⑥口口口
⑦口口口 |--⑤-|
口口口口 |⑥-⑦-|
32
③口口口 |①-②-|
口口④② |--③-|
口口⑤① |--④-|
口口口口 |⑤---|
33
口口②② |①---|
口口口口 |----|
口口口口 |②---|
①①口口 |----|
34
口口口口 |①-②-|
⑤③④⑥ |③-④-|
⑦①②⑧ |⑤-⑥-|
口口口口 |⑦-⑧-|
35
口①①口 |①---|
口口口口 |----|
②口口② |----|
口口口口 |--②-|
36
①口口口 |----|
口②口口 |①---|
口口③口 |②---|
口口口口 |③---|
37
口口口口 |①---|
口口②② |--②-|
③④⑤口 |--③-|
口口口① |④-⑤-|
38
口口①① |①---|
口口口口 |----|
口口口口 |----|
口口口口 |----|
39
口口口口 |①---|
口口②② |--②-|
③④⑤口 |--③-|
口①①口 |④-⑤-|
40
①①口口 |①---|
口口口口 |----|
口口口口 |----|
口口口口 |----|
41
①①口口 |①---|
口口③③ |②-③-|
口④④口 |----|
口口②② |④---|
42
口口①① |①---|
③③口口 |②-③-|
口口口口
②②口口

口④④口
口口口口
口口口口 |----|
口口口口 |④---|
43
①④④① |①---|
④口口④ |----|
口②②口 |②-③-|
口③③口 |--④-|
44
④④口① |----|
口口②口 |①-②-|
口③口口 |③---|
口口口口 |④---|
45
口口口口 |①-②-|
口口口口 |③-④-|
口③口① |----|
④口②口 |----|
46
口③③口 |----|
②口口② |①---|
口口口口 |②---|
口①①口 |③---|
47
口口口口 |①---|
②②口口 |②-③-|
口①①口 |----|
口口③③ |----|
48
口口口口 |----|
③口口③ |①---|
口②②口 |②---|
口①①口 |③---|
49
口①①口 |①---|
口口口口 |----|
口口口口 |----|
口口口口 |----|
50
②③口口 |----|
口口⑤④ |①---|
口①①口 |②-③-|
口口口口 |④-⑤-|
51
口口口口 |①---|
口口口口 |----|
口①①口 |----|
口口口口 |----|
52
口口口口 |①-②-|
②①③④ |③-④-|
⑥⑤⑦⑧ |⑤-⑥-|
口口口口 |⑦-⑧-|
53
①口口口 |①---|
口口口口 |②---|
口②口口
口口口口

⑤口口口
口口④③
口口口口 |③-④-|
口口口口 |--⑤-|
54
口口口口 |--①-|
口①口口 |--②-|
口口②口 |----|
口口口口 |----|
55
口口口① |①---|
口口口口 |②---|
口口②口
口口口口

口口口⑤
③④口口
口口口口 |③-④-|
口口口口 |--⑤-|
56
口口口口 |--①-|
口口①口 |--②-|
口②口口 |----|
口口口口 |----|
57
口口口口 |①---|
①口口口 |②---|
口口口口
口②口口

口口口口
⑤口口口
口口④③ |③-④-|
口口口口 |--⑤-|
58
口口口口 |--①-|
口口口口 |--②-|
口①口口 |----|
口口②口 |----|
59
口口口口 |①---|
口口口① |②---|
口口口口
口口②口

口口口口
口口口⑤
③④口口 |③-④-|
口口口口 |--⑤-|
60
口口口口 |--①-|
口口口口 |--②-|
口口①口 |----|
口②口口 |----|
61
口①口② |----|
①口②口 |①-②-|
口③口④ |③-④-|
③口④口 |----|
62
①口②口 |①-②-|
口①口② |③-④-|
③口④口 |----|
口③口④ |----|
63
②口①口 |----|
口②口① |①-②-|
④口③口 |③-④-|
口④口③ |----|
64
口②口① |①-②-|
②口①口 |③-④-|
口④口③ |----|
④口③口 |----|
65
口口口口 |----|
口口③② |①---|
④①口口 |②-③-|
口口口口 |--④-|
66
口口②口 |--①-|
口①口口 |--②-|
口口口口
口口口口

口口口口
口⑤③④
口口口口 |--③-|
口口口口 |④-⑤-|
67
口口口口 |①---|
①口口口 |----|
口口口口 |----|
口口口口 |----|
68
口口口口 |①-②-|
①③④② |③-④-|
⑦⑤⑥⑧ |⑤-⑥-|
口口口口 |⑦-⑧-|
69
口①①口 |①---|
口口口口 |----|
口②②口 |----|
口口口口 |--②-|
70
①口口口 |----|
口②口口 |①---|
口口③口 |②---|
口口口口 |③---|
71
口口口口 |①---|
口口②② |--②-|
③④⑤口 |--③-|
口口口① |④-⑤-|
72
口口①① |①---|
口口口口 |----|
口口口口 |----|
口口口口 |----|
73
口口口口 |①---|
②口口口 |--②-|
口⑤④③ |--③-|
①口口口 |④-⑤-|
74
①①口口 |①---|
口口口口 |----|
口口口口 |----|
口口口口 |----|
75
①①口口 |①---|
口口③③ |②-③-|
口④④口 |----|
口口②② |④---|
76
口口①① |①---|
③③口口 |②-③-|
口口口口
②②口口

口④④口
口口口口
口口口口 |----|
口口口口 |④---|
77
①④④① |①---|
④口口④ |----|
口②②口 |②-③-|
口③③口 |--④-|
78
④④口① |----|
口口②口 |①-②-|
口③口口 |③---|
口口口口 |④---|
79
口口口口 |①-②-|
口④④① |③-④-|
②口口口 |----|
口口③口 |----|
80
口③③口 |----|
②口口② |①---|
口口口口 |②---|
口①①口 |③---|
81
口口口口 |①---|
②②口口 |②-③-|
口①①口 |----|
口口③③ |----|
82
口口口口 |----|
③口口③ |①---|
口②②口 |②---|
口①①口 |③---|
83
口①①口 |①---|
口口口口 |----|
口口口口 |----|
口口口口 |----|
84
口口口口 |①---|
①①①① |②---|
口②②口
口口口口

③④口口
口口⑥⑤
口口口口 |③-④-|
口口口口 |⑤-⑥-|
85
口口口口 |①---|
口口口口 |----|
口口口口 |②---|
②①①② |----|
86
口口口口 |①---|
②口口② |----|
①口口① |②---|
口口口口 |----|
87
①①①① |①---|
口口口口 |----|
口口口口 |----|
口口口口 |----|

不確定度: 0

最終更新:2017年08月03日 01:16