Endless, Sleepless Night
samfree feat. (V)・∀・(V) かにぱん。

BASIC

Level: 3
BPM: 165
Notes: 234

1
口口口口 |----|
口口口口 |----|
口口口口 |----|
口口口口 |----|
2
①②口口 |①---|
口口口口 |----|
口口口口 |②---|
口口口口 |----|
3
口口①② |①---|
口口口口 |----|
口口口口 |②---|
口口口口 |----|
4
口口口口 |①---|
口口②① |----|
口口口口 |②---|
口口口口 |----|
5
口口口口 |①---|
②①口口 |----|
口口口口 |②---|
口口口口 |----|
6
口口口口 |①---|
口口口口 |----|
①②口口 |②---|
口口口口 |----|
7
口口口口 |①---|
口口口口 |----|
口口①② |②---|
口口口口 |----|
8
口口口口 |①---|
口口口口 |----|
口口口口 |②---|
口口②① |----|
9
口口口口 |①---|
口口口口 |----|
口②②口 |----|
口①口口 |②---|
10
口口①口 |①---|
口口②口 |②---|
口口③口 |③---|
口口口口 |----|
11
口①口口 |①---|
口②口口 |②---|
口③口口 |③---|
口口口口 |----|
12
口口口① |①---|
口口口② |②---|
口口口③ |③---|
口口口口 |----|
13
①口口口 |①---|
②口口口 |②---|
③④④口 |③---|
口口口口 |④---|
14
口口①口 |①---|
口口②口 |②---|
口口③口 |③---|
口口口口 |----|
15
口①口口 |①---|
口②口口 |②---|
口③口口 |③---|
口口口口 |----|
16
口口口① |①---|
口口口② |②---|
口口口③ |③---|
口口口口 |----|
17
①口口口 |①---|
②口口口 |②---|
③④④口 |③---|
口口口口 |④---|
18
口②①口 |①---|
口口口口 |----|
口口口口 |②---|
口口口口 |----|
19
口口口口 |①---|
口②①口 |----|
口口口口 |②---|
口口口口 |----|
20
口口口口 |①---|
口口口口 |----|
口②①口 |②---|
口口口口 |----|
21
口口口口 |①---|
口口口口 |----|
口口口口 |②---|
口②①口 |----|
22
口口口口 |①---|
口口口口 |----|
口口口口 |②---|
②口口① |----|
23
口口口口 |①---|
口口口口 |----|
②口口① |②---|
口口口口 |----|
24
口口口口 |①---|
②口口① |----|
口口口口 |②---|
口口口口 |----|
25
②口口① |①---|
口口口口 |----|
口口口口 |②---|
口口口口 |----|
26
口口口① |①---|
口口口② |----|
口口口口 |②---|
口口口口 |----|
27
口口口口 |①---|
口口口口 |----|
口口口① |②---|
口口口② |----|
28
口口口口 |①---|
口口口口 |----|
口口②口 |②---|
口口①口 |----|
29
口口②口 |①---|
口口①口 |----|
口口口口 |②---|
口口口口 |----|
30
口①口口 |①---|
口②口口 |----|
口口口口 |②---|
口口口口 |----|
31
口口口口 |①---|
口口口口 |----|
口①口口 |②---|
口②口口 |----|
32
口口口口 |①---|
口口口口 |----|
②口口口 |②---|
①口口口 |----|
33
口口口口 |①---|
口①①口 |----|
口口口口 |----|
口口口口 |----|
34
口口口口 |①---|
①口口② |②---|
③口口④ |③---|
口口口口 |④---|
35
口①①口 |①---|
口口口口 |----|
口口口口 |----|
口口口口 |----|
36
口口口口 |①---|
①口口② |②---|
③口口④ |③---|
口口口口 |④---|
37
口口口口 |①---|
口口口口 |----|
口口口口 |----|
口①①口 |----|
38
口口口口 |①---|
①口口② |②---|
③口口④ |③---|
口口口口 |④---|
39
口①①口 |①---|
口口口口 |----|
口②②口 |②---|
口口口口 |----|
40
口口口口 |①---|
①口口② |②---|
③口口④ |③---|
口口口口 |④---|
41
口①①口 |①---|
口口口口 |----|
口口口口 |----|
口口口口 |----|
42
口口口口 |①---|
①口口② |②---|
③口口④ |③---|
口口口口 |④---|
43
口口口口 |①---|
口口口口 |----|
口口口口 |----|
口①①口 |----|
44
口口口口 |①---|
①口口② |②---|
③口口④ |③---|
口口口口 |④---|
45
口①①口 |①---|
口口口口 |----|
口②②口 |②---|
口口口口 |----|
46
口口口口 |①---|
①口口② |②---|
③口口④ |③---|
口口口口 |④---|
47
①①①① |①---|
口口口口 |----|
口口口口 |----|
口口口口 |----|
48
口口口口 |----|
口口口口 |----|
口口口口 |----|
口口口口 |----|
49
①②口口 |①---|
口口口口 |----|
口口口口 |②---|
口口口口 |----|
50
口口①② |①---|
口口口口 |----|
口口口口 |②---|
口口口口 |----|
51
口口口口 |①---|
口口②① |----|
口口口口 |②---|
口口口口 |----|
52
口口口口 |①---|
②①口口 |----|
口口口口 |②---|
口口口口 |----|
53
口口口口 |①---|
口口口口 |----|
①②口口 |②---|
口口口口 |----|
54
口口口口 |①---|
口口口口 |----|
口口①② |②---|
口口口口 |----|
55
口口口口 |①---|
口口口口 |----|
口口口口 |②---|
口口②① |----|
56
口口口口 |①---|
口口口口 |----|
口②②口 |----|
口①口口 |②---|
57
口口口口 |①---|
①口口② |②---|
③口口④ |③---|
口口口口 |④---|
58
口①①口 |①---|
口口口口 |----|
口口口口 |----|
口口口口 |----|
59
口口口口 |①---|
①口口② |②---|
③口口④ |③---|
口口口口 |④---|
60
口口口口 |①---|
口口口口 |----|
口口口口 |----|
口①①口 |----|
61
口口口口 |①---|
①口口② |②---|
③口口④ |③---|
口口口口 |④---|
62
口①①口 |①---|
口口口口 |----|
口②②口 |②---|
口口口口 |----|
63
口口口口 |①---|
①口口② |②---|
③口口④ |③---|
口口口口 |④---|
64
口①①口 |①---|
口口口口 |----|
口口口口 |----|
口口口口 |----|
65
口口口口 |①---|
①口口② |②---|
③口口④ |③---|
口口口口 |④---|
66
口口口口 |①---|
口口口口 |----|
口口口口 |----|
口①①口 |----|
67
口口口口 |①---|
①口口② |②---|
③口口④ |③---|
口口口口 |④---|
68
口①①口 |①---|
口口口口 |----|
口②②口 |②---|
口口口口 |----|
69
口口口口 |①---|
①口口② |②---|
③口口④ |③---|
口口口口 |④---|
70
①①①① |①---|
口口口口 |----|
口口口口 |----|
口口口口 |----|
71
口口①口 |①---|
口口②口 |②---|
口口③口 |③---|
口口口口 |----|
72
口①口口 |①---|
口②口口 |②---|
口③口口 |③---|
口口口口 |----|
73
口口口① |①---|
口口口② |②---|
口口口③ |③---|
口口口口 |----|
74
①口口口 |①---|
②口口口 |②---|
③④④口 |③---|
口口口口 |④---|
75
口口①口 |①---|
口口②口 |②---|
口口③口 |③---|
口口口口 |----|
76
口①口口 |①---|
口②口口 |②---|
口③口口 |③---|
口口口口 |----|
77
口口口① |①---|
口口口② |②---|
口口口③ |③---|
口口口口 |----|
78
①口口口 |①---|
②口口口 |②---|
③④④口 |③---|
口口口口 |④---|
79
①②口口 |①---|
口口口口 |----|
口口口口 |②---|
口口口口 |----|
80
口口①② |①---|
口口口口 |----|
口口口口 |②---|
口口口口 |----|
81
口口口口 |①---|
口口②① |----|
口口口口 |②---|
口口口口 |----|
82
口口口口 |①---|
②①口口 |----|
口口口口 |②---|
口口口口 |----|
83
口口口口 |①---|
口口口口 |----|
①②口口 |②---|
口口口口 |----|
84
口口口口 |①---|
口口口口 |----|
口口①② |②---|
口口口口 |----|
85
口口口口 |①---|
口口口口 |----|
口口口口 |②---|
口口②① |----|
86
口口口口 |①---|
口口口口 |----|
口口口口 |②---|
②①口口 |----|

不確定度: 0

最終更新:2017年08月03日 01:12