零の位相
kradness

BASIC

Level: 4
BPM: 190-205
Notes: 262

BPM: 190
1
口口口口 |----|
口口口口 |----|
口口口口 |----|
口口口口 |----|
2
口口口口 |----|
口口口口 |----|
口口口口 |----|
口口口口 |----|
3
口②①口 |①---|
口口口口 |----|
口口口口 |②---|
口口口口 |----|
4
口口口口 |①---|
口②①口 |----|
口口口口 |②---|
口口口口 |----|
5
口口口口 |①---|
口口口口 |----|
口②①口 |②---|
口口口口 |----|
6
口口口口 |①---|
口口口口 |----|
口口口口 |②---|
口②①口 |----|
7
口口口口 |①---|
口口口口 |----|
②口口① |②---|
口口口口 |----|
8
口口口口 |①---|
②口口① |----|
口口口口 |②---|
口口口口 |----|
9
②口口① |①---|
口口口口 |----|
口口口口 |②---|
口口口口 |----|
10
口口口口 |----|
口口口口 |----|
口口口口 |----|
口口口口 |----|
11
口口口口 |----|
口口口口 |----|
口口口口 |----|
口口口口 |----|

BPM: 205.001
12
口口口口 |----|
口①①口 |----|
口①①口 |----|
口口口口 |--①-|
13
口①①口 |----|
口口口口 |----|
口口口口 |①---|
口口口口 |----|
14
口口口口 |①---|
口①②③ |②---|
口口口口 |③---|
口口口口 |----|
15
口口口口 |①---|
口口口口 |②---|
③②①口 |③---|
口口口口 |----|
16
口口口口 |①---|
口口口口 |②---|
口口口口 |③---|
口①②③ |----|
17
口口口口 |①---|
③②①口 |②---|
口口口口 |③---|
口口口口 |----|
18
口口口口 |①---|
口口口口 |②---|
口①②③ |③---|
口口口口 |----|
19
口口口口 |①---|
口口口口 |②---|
口口口口 |③---|
③②①口 |----|
20
③③③③ |①---|
口②②口 |----|
①口口① |②---|
口口口口 |③---|
21
口口口③ |----|
口口口口 |①---|
口①②口 |②---|
口口口口 |--③-|
22
口口口口 |----|
口①口口 |①---|
口②口口 |②---|
口③口口 |③---|
23
②口口口 |----|
口口口口 |----|
口①口口 |①---|
口口口口 |--②-|
24
口口口口 |----|
口口①口 |①---|
口口②口 |②---|
口口③口 |③---|
25
③口口③ |①---|
口②②口 |--②-|
①口口① |----|
口口口口 |③---|
26
口口口口 |----|
口口口口 |----|
口口口口 |----|
口口口口 |----|
27
口口口口 |----|
口口口口 |----|
口口口口 |----|
口口口口 |----|
28
①①①① |----|
口口口口 |----|
口口口口 |----|
口口口口 |①---|
29
③口口口 |----|
口口口口 |①---|
口②①口 |②---|
口口口口 |--③-|
30
口口口口 |----|
口口①口 |①---|
口口②口 |②---|
口口③口 |③---|
31
口口口② |----|
口口口口 |----|
口口①口 |①---|
口口口口 |--②-|
32
口口口口 |----|
口①口口 |①---|
口②口口 |②---|
口③口口 |③---|
33
③口口③ |①---|
口②②口 |--②-|
①口口① |----|
口口口口 |③---|
34
口口口口 |----|
口口口口 |----|
口口口口 |----|
口口口口 |----|
35
口口口口 |----|
口口口口 |----|
口口口口 |----|
口口口口 |----|
36
口口口口 |----|
口口口口 |----|
口口口口 |----|
口口口口 |----|
37
口口口② |----|
口口口口 |----|
口口①口 |①---|
口口口口 |--②-|
38
口口口口 |----|
①②③口 |①---|
口口口口 |②---|
口口口口 |③---|
39
口口口口 |①---|
口口口① |②---|
口④③② |③---|
口口口口 |④---|
40
口口口口 |①---|
口口口口 |----|
①口口口 |----|
口口口口 |----|
41
②口口口 |----|
口口口口 |----|
口①口口 |①---|
口口口口 |--②-|
42
口口口口 |----|
口③②① |①---|
口口口口 |②---|
口口口口 |③---|
43
口口口口 |①---|
①口口口 |----|
口口口口 |----|
口口口口 |----|
44
口口口口 |----|
口口口口 |----|
口①①口 |----|
口口口口 |①---|
45
口口口口 |①---|
②①①② |----|
口口口口 |②---|
口口口口 |----|
46
口口口口 |①---|
口口口口 |----|
①口口① |②---|
②口口② |----|
47
①①①① |①---|
口口口口 |----|
口口口口 |----|
口口口口 |----|
48
口口口口 |----|
口口口口 |----|
口口口口 |----|
口口口口 |----|
49
口口口口 |----|
口口口口 |----|
口口口口 |----|
口口口口 |----|
50
③口口③ |----|
口①①口 |①---|
口②②口 |②---|
口口口口 |--③-|
51
③①①③ |----|
口①①口 |①---|
口②②口 |②---|
口口口口 |--③-|
52
口口口口 |----|
口②口口 |①---|
①口③口 |②---|
口口口口 |③---|
53
口口口口 |①---|
口口③① |②---|
口④口② |③---|
口口口口 |④---|
54
③③③③ |①---|
①口口口 |②---|
②口口口 |----|
口口口口 |--③-|
55
②口口② |----|
口口口口 |----|
口①①口 |①---|
口口口口 |--②-|
56
口口①口 |----|
口口②口 |①---|
口口③口 |②---|
口口口口 |③---|
57
②②②② |①---|
口口口口 |--②-|
口口口口 |----|
口①①口 |----|
58
②口口② |----|
口口口口 |----|
口①①口 |①---|
口口口口 |--②-|
59
②口口② |----|
口口口口 |----|
口①①口 |①---|
口口口口 |--②-|
60
口口口口 |----|
口口②口 |①---|
口③口① |②---|
口口口口 |③---|
61
口口口口 |①---|
①③口口 |②---|
②口④口 |③---|
口口口口 |④---|
62
口口口口 |①---|
口口③① |②---|
口口口② |③---|
口口口口 |----|
63
口口口口 |①---|
口③③口 |--②-|
②口口② |----|
口①①口 |③---|
64
口③③口 |①---|
②口口② |--②-|
口①①口 |----|
口口口口 |③---|
65
口口口口 |①---|
口①①口 |----|
口①①口 |----|
口口口口 |----|
66
①①①① |----|
口口口口 |----|
口口口口 |----|
口口口口 |--①-|
67
口口口口 |----|
口口口口 |①---|
口口口口 |②---|
③②①口 |③---|
68
口口口口 |①---|
口口口口 |②---|
①②③④ |③---|
口口口口 |④---|
69
口口口口 |①---|
④③②① |②---|
口口口口 |③---|
口口口口 |④---|
70
①②③④ |①---|
口口口口 |②---|
口口口口 |③---|
口口口口 |④---|
71
口口口口 |①---|
④③②① |②---|
口口口口 |③---|
口口口口 |④---|
72
口口口口 |①---|
口口口口 |②---|
①②③④ |③---|
口口口口 |④---|
73
口口口口 |①---|
口口口口 |②---|
口口口口 |③---|
④③②① |④---|
74
③③③③ |①---|
口①①口 |----|
口②②口 |②---|
口口口口 |--③-|
75
口口口口 |----|
口口口口 |①---|
口口口口 |②---|
口①②③ |③---|
76
口口口口 |①---|
口口口口 |②---|
④③②① |③---|
口口口口 |④---|
77
口口口口 |①---|
①②③④ |②---|
口口口口 |③---|
口口口口 |④---|
78
④③②① |①---|
口口口口 |②---|
口口口口 |③---|
口口口口 |④---|
79
口口口口 |①---|
①②③④ |②---|
口口口口 |③---|
口口口口 |④---|
80
口口口口 |①---|
口口口口 |②---|
④③②① |③---|
口口口口 |④---|
81
口口口口 |①---|
口口口口 |②---|
口口口口 |③---|
①②③④ |④---|
82
③③③③ |①---|
口①①口 |----|
口②②口 |②---|
口口口口 |③---|

不確定度: 0

最終更新:2017年08月03日 01:10