ECO FIGHTER
入尾信充

BASIC

Level: 3
BPM: 140
Notes: 182

1
口口口口 |----|
口口口口 |----|
口口口口 |----|
口口口口 |----|
2
口口口口 |①---|
口口口口 |----|
口①①口 |----|
口口口口 |----|
3
口口口口 |----|
口口口口 |----|
口口口口 |----|
口口口口 |----|
4
口口口口 |①---|
①口口① |----|
口口口口 |----|
口口口口 |----|
5
口口口① |----|
口口②口 |----|
口口口口 |①---|
口口口口 |②---|
6
口口口口 |①---|
口口口口 |----|
口①①口 |----|
口口口口 |----|
7
①口口口 |①---|
口②③口 |----|
口口口口 |②---|
口口口口 |③---|
8
口口口① |①---|
口③②口 |----|
口口口口 |②---|
口口口口 |③---|
9
①口口口 |①---|
口口口口 |----|
口②③口 |②---|
口口口口 |③---|
10
口口口① |①---|
口口口口 |----|
口③②口 |②---|
口口口口 |③---|
11
口口口口 |--①-|
口①②口 |②---|
口④③口 |③---|
口口口口 |④---|
12
口口口口 |----|
口口口口 |①---|
口口②① |②---|
口口口口 |----|
13
口口口口 |--①-|
口④③口 |②---|
口①②口 |③---|
口口口口 |④---|
14
口口口口 |----|
口口口口 |①---|
②①口口 |②---|
口口口口 |----|
15
口口口口 |----|
口①口口 |①---|
口②③口 |②---|
口口口口 |③---|
16
口口口口 |①---|
口③③② |②---|
口口口① |③---|
口口口口 |----|
17
口口口口 |--①-|
口④③口 |②---|
口①②口 |③---|
口口口口 |④---|
18
②口口口 |①---|
①③④⑤ |②---|
口口口口 |③-④-|
口口口口 |⑤---|
19
口口口口 |--①-|
口口口口 |②-③-|
口口口⑤ |④-⑤-|
①②③④ |----|
20
口口口口 |①---|
口①②口 |--②-|
口口口口 |----|
口口口口 |----|
21
口口口口 |--①-|
口口口⑤ |②-③-|
①②③④ |④-⑤-|
口口口口 |----|
22
口①②口 |①---|
口口口口 |--②-|
口口口口 |----|
口口口口 |----|
23
口口口口 |--①-|
③④口口 |②---|
口①②口 |③---|
口口口口 |④---|
24
①②口口 |--①-|
口③④口 |②---|
口口口口 |③--④|
口口口口 |----|
25
口口口口 |--①-|
口③④口 |②---|
口①②口 |③---|
口口口口 |④---|
26
口④③口 |--①-|
口口口口 |②---|
口②①口 |③---|
口口口口 |④---|
27
口口口口 |①---|
口①②口 |--②-|
口口口口 |----|
口口口口 |----|
28
口口口① |①---|
口口口② |--②-|
口口口口 |----|
口口口口 |----|
29
口口口口 |①---|
口③④口 |--②-|
口①②口 |----|
口口口口 |③-④-|
30
口口口口 |----|
口口口口 |----|
口口口口 |----|
口口口口 |----|
31
口口口口 |--①-|
①②③④ |②-③-|
口口⑥⑤ |④-⑤-|
口口口口 |⑥---|
32
口口口口 |①---|
口口口口 |--②-|
①②③口 |----|
口口口口 |--③-|
33
口③④口 |--①-|
口①②口 |②---|
口口口口 |③---|
口口口口 |④---|
34
口口口① |①---|
口口口② |--②-|
口口③口 |----|
口口口口 |--③-|
35
口口口⑤ |--①-|
①②③④ |②-③-|
口口口口 |④-⑤-|
口口口口 |----|
36
口口口口 |①---|
口口口口 |--②-|
口②③① |----|
口口口口 |--③-|
37
口③④口 |--①-|
口①②口 |②---|
口口口口 |③---|
口口口口 |④---|
38
口口口① |①---|
口口口② |--②-|
口口③口 |----|
口口口口 |--③-|
39
口口口⑤ |--①-|
①②③④ |②-③-|
口口口口 |④-⑤-|
口口口口 |----|
40
口口口口 |①---|
口②③口 |②-③-|
口①④口 |----|
口口口口 |④---|
41
口口口口 |①---|
口③④口 |--②-|
①口口② |--③-|
口口口口 |④---|
42
口口口口 |①---|
口②③口 |②-③-|
⑤①④口 |--④-|
口口口口 |--⑤-|
43
口口口口 |----|
口③口口 |①---|
口①②口 |②---|
口口口口 |--③-|
44
口口口口 |①---|
口口①口 |②-③-|
口②③口
口口口口

口口口口
口口④口
口口口口 |--④-|
口口口口 |----|
45
口口口口 |①---|
口口④口 |②-③-|
①②③口 |--④-|
口口口口 |----|
46
口口口口 |①---|
口②③口 |②-③-|
口①④口 |--④-|
口口⑤口 |--⑤-|
47
口口口口 |①---|
口口口口 |----|
口口②口 |②---|
口①口口 |----|
48
口口口口 |①---|
口口①口 |----|
口口口口 |----|
口口口口 |----|
49
口口口口 |----|
口口口口 |----|
口口口口 |----|
口口口口 |----|
50
①口口口 |①---|
口②③口 |----|
口口口口 |②---|
口口口口 |③---|
51
口口口① |①---|
口③②口 |----|
口口口口 |②---|
口口口口 |③---|
52
①口口口 |①---|
口口口口 |----|
口②③口 |②---|
口口口口 |③---|
53
口口口① |①---|
口口口口 |----|
口③②口 |②---|
口口口口 |③---|
54
①口口口 |①---|
口②③口 |----|
口口口口 |②---|
口口口口 |③---|
55
口口口① |①---|
②③④口 |---②|
口口口口 |-③-④|
口口口口 |----|
56
口口口口 |----|
口口口口 |----|
口口口口 |----|
口口口口 |----|
57
口口口口 |①②-③|
④⑤口⑥ |----|
③口②① |④⑤-⑥|
口口口口 |----|
58
③口②① |①②-③|
口口口口 |----|
口口口口 |----|
口口口口 |----|


不确定度: 0

最終更新:2012年11月11日 16:29