零の位相
kradness

ADVANCED

Level: 7
BPM: 190-205
Notes: 425

BPM: 190
1
口口口口 |----|
口口口口 |----|
口口口口 |----|
口口口口 |----|
2
口口口口 |----|
口口①口 |①---|
口②口口 |②---|
口口③口 |③---|
3
③④口口 |①---|
口口②口 |----|
口口口口 |②-③-|
口①口口 |--④-|
4
口口口口 |----|
口口口① |①---|
口口口② |②---|
口口口③ |③---|
5
口口口⑤ |①---|
①口口口 |②---|
②口④口 |③---|
③口口口 |④-⑤-|
6
①口口口 |--①-|
口口口口 |②---|
口②口口 |----|
口口口口 |----|
7
③口口口 |①---|
口①①口 |----|
口口口口 |②---|
口口②口 |--③-|
8
口口口口 |----|
口口①口 |①---|
口口②口 |②---|
口口③口 |③---|
9
②①①② |①---|
口口口口 |--②-|
口口口口 |----|
口口口口 |----|
10
口口口口 |----|
口口口口 |----|
口口口口 |----|
口口口口 |----|
11
口口口口 |----|
口口口口 |----|
口口口口 |----|
口口口口 |----|

BPM: 205.001
12
口口口口 |----|
口口口口 |----|
口口口口 |----|
①①①① |--①-|
13
①口口口 |----|
口口口口 |①---|
口③②④ |②-③-|
口口口口 |--④-|
14
口口口② |--①-|
口口口① |--②-|
口④③口 |--③-|
口口⑤口 |④-⑤-|
15
口④②口 |--①-|
口①③口 |②---|
口⑤⑤口 |③-④-|
口口口口 |--⑤-|
16
③口口⑥ |--①-|
⑤口口② |②-③-|
①口口④ |--④-|
口口口口 |⑤-⑥-|
17
口①①口 |----|
④②③口 |①---|
口口口口 |②-③-|
口口口口 |--④-|
18
口口口口 |--①-|
④口口④ |--②-|
①口口口 |--③-|
②③③口 |--④-|
19
口①①口 |----|
④口②④ |①---|
口③口口 |②-③-|
口口口口 |--④-|
20
④④④④ |----|
口②口口 |①---|
口口③口 |②-③-|
口①①口 |④---|
21
口口口④ |----|
口口①口 |①---|
②③口口 |②-③-|
口口口口 |--④-|
22
口口口口 |----|
口口①口 |①---|
口口②口 |②---|
口口③口 |③---|
23
③口口口 |----|
口口口口 |----|
口口②① |①-②-|
口口口口 |--③-|
24
口口口口 |----|
口①口口 |①---|
口②口口 |②---|
口③口口 |③---|
25
③口口③ |①---|
口②②口 |--②-|
①口口① |----|
口口口口 |③---|
26
口口口口 |----|
①口口① |--①-|
口③②口 |--②-|
口口④口 |③-④-|
27
口口口口 |①---|
②口口② |--②-|
口④③口 |--③-|
口①⑤口 |④-⑤-|
28
④④④④ |①---|
②口口② |--②-|
口口口口 |--③-|
③①口③ |④---|
29
口口口口 |----|
④口①口 |①---|
口②口口 |②---|
③口口口 |③-④-|
30
口口口口 |----|
口①口口 |①---|
口口②口 |②---|
口口口③ |③---|
31
口口口③ |----|
口口①口 |----|
口口口② |①---|
口口口口 |②-③-|
32
口口①口 |----|
口②口口 |①---|
③口口口 |②---|
口口口口 |③---|
33
口③③口 |①---|
②口口② |--②-|
口①①口 |----|
口口口口 |③---|
34
口口口口 |----|
①口口① |--①-|
口③②口 |--②-|
口口④口 |③-④-|
35
口口口口 |①---|
②口口② |--②-|
口④③口 |--③-|
口①⑤口 |④-⑤-|
36
④口口④ |①---|
②口口② |--②-|
口口口口 |--③-|
③①口③ |④---|
37
④①①④ |①---|
口口口口 |----|
口③②口 |②-③-|
口口口口 |--④-|
38
口口口口 |----|
口①口口 |①---|
口口②口 |②---|
口口口③ |③---|
39
口口③③ |①---|
④④口口 |②-③-|
口口⑤⑤ |--④-|
口②①口 |--⑤-|
40
口口口口 |----|
口口口口 |----|
口口口口 |----|
口口口口 |----|
41
③口口③ |----|
口口口口 |----|
口①②口 |①-②-|
口口口口 |--③-|
42
口口口口 |----|
口口①口 |①---|
口②口口 |②---|
③口口口 |③---|
43
口口口口 |①---|
口口口口 |----|
口口口口 |----|
口①口口 |----|
44
口口口口 |----|
口②口口 |----|
口口①口 |----|
口口口口 |①-②-|
45
口口①口 |①---|
口口②② |----|
口口口口 |②---|
口口口口 |----|
46
口口口口 |①---|
①①口口 |----|
口口口口 |②---|
②③③② |③---|
47
①①①① |①---|
②口口② |--②-|
口③③口 |----|
口口口口 |③---|
48
口口口口 |--①-|
口③③口 |----|
口口口口 |②---|
①②②① |③---|
49
②口口① |①-②-|
④口口③ |③-④-|
⑥口口⑤ |⑤-⑥-|
⑧口口⑦ |⑦-⑧-|
50
②口口② |①---|
口①①口 |②---|
口⑤④口 |③---|
⑤③③④ |④-⑤-|
51
①①①① |----|
③口口② |①---|
③口口② |②---|
口口口口 |--③-|
52
①口口① |----|
口口口口 |①---|
口③②口 |②-③-|
口⑤④口 |④-⑤-|
53
口③②口 |----|
①口口① |①---|
④口口④ |②-③-|
口口口口 |--④-|
54
⑤⑤⑤⑤ |--①-|
口口③口 |②---|
口④口口 |③-④-|
②②①① |--⑤-|
55
口③③口 |----|
口口口口 |----|
口②①口 |①-②-|
②口口① |--③-|
56
①口口① |----|
②口口② |①---|
③口口③ |②---|
口口口口 |③---|
57
②②②② |①---|
口口口口 |--②-|
口口口口 |----|
口①①口 |----|
58
口④口口 |----|
口口③口 |----|
口②口口 |①-②-|
口口①口 |③-④-|
59
③口口③ |----|
口口口口 |----|
②口口① |①-②-|
口②①口 |--③-|
60
口口口口 |----|
①①口口 |①---|
口口②② |②---|
③③口口 |③---|
61
口②①口 |①---|
②④③① |②---|
④口口③ |③---|
口口口口 |④---|
62
③口口③ |①-②-|
③口口③ |--③-|
口口口口 |----|
②①①② |----|
63
口①①口 |①---|
②口口② |--②-|
口③③口 |----|
口口口口 |③---|
64
口口口口 |①---|
口①①口 |--②-|
②口口② |----|
口③③口 |③---|
65
口口口口 |①---|
①①①① |--②-|
口②②口 |----|
口③③口 |③---|
66
②口⑤② |①---|
口④口口 |②---|
①口③① |③-④-|
⑥⑥⑥⑥ |⑤-⑥-|
67
①口口口 |----|
口口口口 |①---|
口③②④ |②-③-|
口口口口 |--④-|
68
口口口② |--①-|
口口口① |--②-|
口④③口 |--③-|
口口⑤口 |④-⑤-|
69
口④②口 |--①-|
口①③口 |②---|
口⑤⑤口 |③-④-|
口口口口 |--⑤-|
70
③口口⑥ |--①-|
⑤口口② |②-③-|
①口口④ |--④-|
口口口口 |⑤-⑥-|
71
口①①口 |----|
④②③口 |①---|
口口口口 |②-③-|
口口口口 |--④-|
72
口口口口 |--①-|
④口口④ |--②-|
①口口口 |--③-|
②③③口 |--④-|
73
口①①口 |----|
④口②④ |①---|
口③口口 |②-③-|
口口口口 |--④-|
74
口④④口 |----|
口口口口 |①---|
②口口② |②---|
③①①③ |③-④-|
75
①口口口 |----|
口口口口 |①---|
口③②④ |②-③-|
口口口口 |--④-|
76
口口口② |--①-|
口口口① |--②-|
口④③口 |--③-|
口口⑤口 |④-⑤-|
77
口④②口 |--①-|
口①③口 |②---|
口⑤⑤口 |③-④-|
口口口口 |--⑤-|
78
③口口⑥ |--①-|
⑤口口② |②-③-|
①口口④ |--④-|
口口口口 |⑤-⑥-|
79
口①①口 |----|
④②③口 |①---|
口口口口 |②-③-|
口口口口 |--④-|
80
口口口口 |--①-|
④口口④ |--②-|
①口口口 |--③-|
②③③口 |--④-|
81
口①①口 |----|
④口②④ |①---|
口③口口 |②-③-|
口口口口 |--④-|
82
④④④④ |----|
口②口口 |①---|
口口③口 |②-③-|
口①①口 |④---|

不確定度: 0

最終更新:2017年08月03日 01:10