時の妖花
ゲーム実況者わくわくバンド

BASIC

Level: 2
BPM: 150
Notes: 142

1
口口口口 |----|
口口口口 |----|
口口口口 |----|
口口口口 |----|
2
口①口口 |①---|
口口口口 |----|
口口口口 |----|
口口口口 |----|
3
口口①口 |①---|
口口口口 |----|
口口口口 |----|
口口口口 |----|
4
口口口口 |①---|
口①口口 |----|
口口口口 |----|
口口口口 |----|
5
口口口口 |----|
口口口口 |----|
口口口口 |----|
口口口口 |----|
6
口口①口 |①---|
口口口口 |----|
口口口口 |----|
口口口口 |----|
7
口①口口 |①---|
口口口口 |----|
口口口口 |----|
口口口口 |----|
8
口口口口 |①---|
口口①口 |----|
口口口口 |----|
口口口口 |----|
9
口口口口 |----|
口口口口 |----|
口口口口 |----|
口口口口 |----|
10
口口口口 |①---|
口口口口 |----|
①口口口 |----|
口口口口 |----|
11
口口口口 |①---|
口口口口 |----|
口①口口 |----|
口口口口 |----|
12
口口口口 |①---|
口口口口 |----|
口口①口 |----|
口口口口 |----|
13
口口口口 |①---|
口②③口 |----|
口口口① |②---|
口口口口 |③---|
14
口口口口 |①---|
口口口口 |----|
口口口① |----|
口口口口 |----|
15
口口口口 |①---|
口口口口 |----|
口口①口 |----|
口口口口 |----|
16
口口口口 |①---|
口口口口 |----|
口①口口 |----|
口口口口 |----|
17
口口口口 |①---|
口口口口 |----|
①口口口 |----|
口口口口 |----|
18
口②口口 |①---|
口口①口 |----|
口口口口 |②---|
口口口口 |----|
19
口口口口 |①---|
①②口口 |----|
口口口口 |②---|
口口口口 |----|
20
口口口口 |①---|
口口口口 |----|
口口①① |②---|
口②口口 |----|
21
口口口口 |①---|
口口口口 |----|
口口口口 |----|
①口口口 |----|
22
口口口口 |①---|
口口②① |----|
口口口口 |②---|
口口口口 |----|
23
口口口口 |①---|
②①口口 |----|
口口口口 |②---|
口口口口 |----|
24
口①①口 |①---|
口口口② |----|
口口口口 |②---|
口口口口 |----|
25
口口口口 |①---|
口口口口 |----|
口①①口 |----|
口口口口 |----|
26
口口口口 |①---|
①②口口 |----|
口口口口 |②---|
口口口口 |----|
27
口②口口 |①---|
口口①口 |----|
口口口口 |②---|
口口口口 |----|
28
口口口口 |①---|
口口①口 |----|
口②口口 |②---|
口口口口
29
口口口口 |①---|
口口口口 |----|
口口口口 |----|
①口口口
30
口口口口 |①---|
①口口口 |----|
口口口口
口口口口
31
口口口口 |①---|
口①口口 |----|
口口②口 |②---|
口口口口
32
口口口口 |①---|
口口口口 |----|
口口口口 |----|
口口口①
33
口口口口 |①---|
口口口① |----|
口口口口
口口口口
34
口口口口 |①---|
口口①口 |----|
口②口口 |②---|
口口口口
35
口口口口 |①---|
口口口口 |----|
口口口口 |----|
①口口口
36
口口口口 |①---|
①口口口 |----|
口口口口
口口口口
37
口口口口 |①---|
口①口口 |----|
口口口口 |----|
口口口口
38
口口口口 |①---|
口口口口 |----|
口口①① |----|
口口口口
39
口口口口 |①---|
口口②口 |②---|
口①口口
口口口口
40
①①口口 |①---|
口口②口 |----|
口口口口 |②---|
口口口口 |----|
41
口口口口 |①---|
口口口口 |----|
①①口口 |----|
口口口口 |----|
42
口口①① |①---|
口②口口 |----|
口口口口 |②---|
口口口口 |----|
43
①口口① |①---|
口口口口 |----|
口口口口 |----|
口口口口 |----|
44
口口口口 |①---|
②①口口 |----|
口口口口 |②---|
口口口口 |----|
45
口口口口 |①---|
口口①② |----|
口口口口 |②---|
口口口口 |----|
46
口口口口 |①---|
②口口口 |----|
口①①口 |②---|
口口口口 |----|
47
口①①口 |①---|
口口口② |----|
口口口口 |②---|
口口口口 |----|
48
口口口口 |①---|
口口口口 |----|
口①①口 |----|
口口口口 |----|
49
口口口口 |①---|
②口口口 |----|
口①①口 |②---|
口口口口 |----|
50
口①①口 |①---|
口口口口 |----|
口口口口 |----|
口口口口 |----|
51
口口口口 |①---|
口口①② |----|
口口口口 |②---|
口口口口 |----|
52
口口口口 |①---|
②①口口 |----|
口口口口 |②---|
口口口口 |----|
53
口①①口 |①---|
口②②口 |----|
口口口口 |②---|
口口口口 |----|
54
口口口口 |①---|
口口口口 |----|
①③③① |②---|
口②②口 |③---|
55
口口口口 |①---|
①口口① |----|
口口口口 |----|
口口口口 |----|
56
口①口口 |①---|
口口口口 |----|
口口口口 |----|
口口口口 |----|
57
口口①② |①---|
口口口口 |----|
口口口口 |②---|
口口口口 |----|
58
口口口口 |①---|
口口②① |----|
口口口口 |②---|
口口口口 |----|
59
口口口口 |①---|
②①口口 |----|
口口口口 |②---|
口口口口 |----|
60
口口口口 |①---|
口口口口 |----|
①②口口 |②---|
口口口口 |----|
61
口口口口 |①---|
口口口口 |----|
口口①② |②---|
口口口口 |----|
62
口口口口 |①---|
口口口口 |----|
口口口口 |②---|
口口②① |----|
63
口口口口 |①---|
口②②口 |----|
口口口口 |②---|
口①口口 |----|
64
口口口口 |①---|
口②②口 |----|
口口口口 |②---|
口口①口 |----|
65
口口①口 |①---|
口口口口 |----|
口②②口 |②---|
口口口口 |----|
66
口①口口 |①---|
口口口口 |----|
口②②口 |②---|
口口口口 |----|
67
口口口口 |①---|
口②②口 |----|
口口口口 |②---|
口口①口 |----|
68
口口口口 |①---|
口②②口 |----|
口口口口 |②---|
口①口口 |----|
69
口①口口 |①---|
口口口口 |----|
口②②口 |②---|
口口口口 |----|
70
②口口② |①---|
口①①口 |----|
口口口口 |②---|
口口口口 |----|
71
口口口口 |①---|
口口①口 |----|
口口口口 |----|
口口口口 |----|
72
口口口口 |①---|
口①口口 |----|
口口口口 |----|
口口口口 |----|
73
口口口口 |①---|
口口口口 |----|
口①口口 |----|
口口口口
74
口口口口 |①---|
口口口口 |----|
口口①口 |----|
口口口口
75
口口口口 |①---|
口①口口 |----|
口口口口 |----|
口口口口
76
①口口① |①---|
口口口口 |----|
口口口口 |----|
口口口口 |----|

不確定度: 0

最終更新:2017年08月03日 01:09