時の妖花
ゲーム実況者わくわくバンド

ADVANCED

Level: 6
BPM: 150
Notes: 367

1
口口口口 |----|
口口口口 |----|
口口口口 |----|
口口口口 |----|
2
口①①口 |①---|
口口口口 |----|
口口口口 |----|
口口口口 |----|
3
口口口口 |①---|
口①①口 |----|
口口口口 |----|
口口口口 |----|
4
口口口口 |①---|
口口口口 |----|
口①①口 |----|
口口口口 |----|
5
口口口口 |----|
口口口口 |----|
口口口口 |----|
口口口口 |----|
6
口①①口 |①---|
口口口口 |②---|
②③④口 |③---|
口口口口 |④---|
7
口口口口 |①---|
口①①口 |②---|
口口口口 |③---|
口④③② |④---|
8
口口口口 |①---|
②③④口 |②---|
口①①口 |③---|
口口口口 |④---|
9
口口口口 |----|
口口口口 |----|
口口口口 |----|
口口口口 |----|
10
口③口口 |①--②|
③口口口 |--③-|
口口②口 |----|
口口口① |----|
11
口口③口 |①--②|
口口口③ |--③-|
口②口口 |----|
①口口口 |----|
12
口③口④ |①--②|
③⑤口口 |--③-|
口口②⑥ |--④-|
口口口① |⑤-⑥-|
13
口口口口 |①---|
口口②口 |----|
口口口口 |②---|
口①③口 |③---|
14
口口③口 |①--②|
口口口③ |--③-|
口②口口 |----|
①口口口 |----|
15
口③口口 |①--②|
③口口口 |--③-|
口口②口 |----|
口口口① |----|
16
④口③口 |①--②|
口口⑤③ |--③-|
⑥②口口 |--④-|
①口口口 |⑤-⑥-|
17
口③口口 |①--②|
口口口② |--③-|
口口口口 |----|
口口①口 |----|
18
口口口口 |①---|
①口口① |----|
口②②④ |②-③-|
口③③口 |--④-|
19
②③③② |①---|
④①①口 |②---|
口口口⑤ |③-④-|
⑥口口口 |⑤-⑥-|
20
口口口③ |①-②-|
口②④口 |--③④|
口口①口
口口口口

口⑥口口
口口口⑦
口⑤⑧口 |⑤-⑥-|
口口口口 |⑦-⑧-|
21
口口口口 |①---|
口①口口 |----|
口口口口
口口口口

口口②口
口③口口
口口口口 |----|
口口口口 |②-③-|
22
口②口口 |①---|
口口③口 |--②-|
口④①口 |③-④-|
口⑥⑤口 |⑤-⑥-|
23
口口口③ |①-②-|
口②口口 |--③-|
口口①口
口口口口

口口口口
④口口口
口口⑦⑤ |④-⑤-|
⑥口口口 |⑥-⑦-|
24
②⑦口② |①-②-|
③①口⑥ |--③④|
⑧④口口 |⑤-⑥-|
口口⑤口 |⑦-⑧-|
25
口②口口 |①---|
口口③口 |----|
口口口口 |----|
口①口口 |②-③-|
26
口口⑥口 |①---|
⑤口口② |--②③|
口①③⑦ |④-⑤-|
口④口口 |⑥-⑦-|
27
③口口③ |①---|
口②②口 |②---|
口口口口 |③---|
口口①口 |----|
28
③口②口 |①--②|
口口口④ |--③-|
口①⑤口 |④-⑤-|
口口口口
29
口口②口 |①---|
口③口口 |--②-|
口口④口 |③-④-|
①①口口
30
口口口口 |①-②-|
口口④口 |③-④-|
口③口口
口①②口
31
①①口② |①---|
③口口口 |--②-|
口④口口 |③-④-|
口口口口
32
口口口口 |①---|
口④口② |--②-|
口口③口 |③-④-|
口口①①
33
口口①② |①-②-|
口口③口 |③-④-|
口④口口
口口口口
34
口②口③ |①--②|
④口口口 |--③-|
口⑤①口 |④-⑤-|
口口口口
35
口②口口 |①---|
口口③口 |--②-|
口④口口 |③-④-|
口口①①
36
口口口口 |①-②-|
口④口口 |③-④-|
口口③口
口②①口
37
口口①口 |①--②|
口口③口 |--③-|
⑤④口② |④-⑤-|
口口口口
38
口口口口 |①---|
口口口口 |----|
口口口口 |----|
口①①口
39
口口口口 |①---|
口②②口 |②---|
口①①口
口口口口
40
①口口① |①---|
口口口口 |--②-|
②口口口
口口口口

⑤口④口
口口⑥口
口⑦口③ |③-④-|
口口口口 |⑤-⑥⑦|
41
口口口口 |----|
口口②口 |----|
口①口口 |----|
口口口口 |①-②-|
42
①口口① |①---|
口口口口 |--②-|
口口口②
口口口口

⑦口③⑦
口⑥口口
口④⑤口 |③-④-|
口口口口 |⑤-⑥⑦|
43
口口口口 |----|
口口口口 |----|
口口口口 |----|
口口口口 |----|
44
⑥口口① |①-②-|
②④口⑦ |③-④⑤|
⑧口⑤③ |--⑥-|
口口口口 |⑦-⑧-|
45
口口⑤口 |①-②-|
口④口口 |③-④⑤|
口⑥⑥③ |----|
②口口① |⑥---|
46
①口口① |①---|
口③③口 |----|
口②②口 |②---|
口口口口 |③---|
47
①口口① |①---|
口口口口 |--②-|
口口口②
口口口口

口④口⑤
口⑥口口
③口⑦口 |③-④-|
口口口口 |⑤-⑥⑦|
48
口口口口 |----|
口②口口 |----|
口口①口 |----|
口口口口 |①-②-|
49
①口口① |①---|
口口口口 |--②-|
②口口口
口口口口

⑦③口⑦
口口⑥口
口⑤④口 |③-④-|
口口口口 |⑤-⑥⑦|
50
口口口口 |----|
口口口口 |----|
口口口口 |----|
口口口口 |----|
51
①口口⑥ |①-②-|
⑦口④② |③-④⑤|
③⑤口⑧ |--⑥-|
口口口口 |⑦-⑧-|
52
口⑤口口 |①-②-|
⑦口④⑦ |③-④⑤|
③⑥⑥口 |--⑥-|
①口口② |⑦---|
53
①口口① |①--②|
④②②④ |--③-|
③⑤⑤③ |④---|
口口口口 |⑤---|
54
①⑤③① |①---|
口②④口 |--②-|
⑥口口⑥ |③-④-|
口口口口 |⑤-⑥-|
55
①口口① |①---|
口口②口 |----|
口③口口 |--②-|
口口④口 |③-④-|
56
口口口③ |①--②|
②口口口 |--③-|
口口口① |----|
口口口口 |----|
57
①口口② |①---|
口③④口 |②---|
口口口口 |③---|
口口口口 |④---|
58
口口口口 |①---|
口口口口 |----|
①口口口 |②---|
口②②口 |----|
59
口口口口 |--①-|
口①①口 |--②-|
口口口②
口口口口

口口口口
口口⑦口
口⑥口口 |③④⑤-|
⑤④③口 |⑥-⑦-|
60
①口⑦口 |--①-|
口⑥口② |--②-|
⑤④③口 |③④⑤-|
口口口口 |⑥-⑦-|
61
①口口口 |①---|
口口口② |②---|
③口口口 |③---|
口口口④ |④---|
62
口①⑤口 |①-②-|
口⑥②口 |③-④-|
口③⑦口 |⑤-⑥-|
口⑧④口 |⑦-⑧-|
63
口口口① |①--②|
③口②口 |--③-|
口口口口 |----|
口口③口 |----|
64
①口口口 |①--②|
口②口③ |--③-|
口口口口 |----|
口③口口 |----|
65
口口⑥① |①--②|
③口②口 |--③-|
口④口⑤ |--④-|
口口③口 |⑤-⑥-|
66
口口口口 |①--②|
口③③口 |--③-|
①口口口 |----|
口口②口 |----|
67
①口口口 |①--②|
口②口③ |--③-|
口口口口 |----|
口③口口 |----|
68
口口口① |①--②|
③口②口 |--③-|
口口口口 |----|
口口③口 |----|
69
①口口口 |①--②|
口②口③ |--③-|
口⑤口④ |--④-|
口③⑥口 |⑤-⑥-|
70
③②②③ |①--②|
口①①口 |--③-|
口口口口 |----|
口口口口 |----|
71
口口口口 |①---|
口①①口 |----|
口口口口 |----|
口口口口 |----|
72
口口口口 |①---|
口口口口 |----|
口①①口 |----|
口口口口 |----|
73
口口口口 |①--②|
口口口口 |--③-|
口口口口 |----|
口③②①
74
口口口口 |①--②|
口口口口 |--③-|
①②③口 |----|
口口口口
75
口口口口 |①--②|
口③②① |--③-|
口口口口 |----|
口口口口
76
①①①① |①---|
口口口口 |----|
口口口口 |----|
口口口口 |----|

不確定度: 0

最終更新:2017年08月03日 01:09