FUJIMORI -祭- FESTIVAL
VENUS

BASIC

Level: 4
BPM: 158
Notes: 271

1
口口口口 |----|
口口口口 |----|
口口口口 |----|
口口口口 |----|
2
口口口口 |①---|
口口口口 |②---|
口④④口 |③---|
①②③口 |④---|
3
口口口口 |①---|
口④④口 |②---|
口口口口 |③---|
口③②① |④---|
4
口口口口 |①---|
口④④口 |②---|
①②③口 |③---|
口口口口 |④---|
5
口④④口 |①---|
口口口口 |②---|
口③②① |③---|
口口口口 |④---|
6
①口口口 |①---|
②④④口 |②---|
③口口口 |③---|
口口口口 |④---|
7
口口口① |①---|
口④④② |②---|
口口口③ |③---|
口口口口 |④---|
8
口口口口 |①---|
①④④口 |②---|
②口口口 |③---|
③口口口 |④---|
9
口口口口 |①---|
口④④① |②---|
口④④② |③---|
口口口③ |④---|
10
③口口口 |①---|
②④④口 |②---|
①口口口 |③---|
口口口口 |④---|
11
口口口③ |①---|
口④④② |②---|
口口口① |③---|
口口口口 |④---|
12
口口口口 |①---|
③④④口 |②---|
②口口口 |③---|
①口口口 |④---|
13
口口口口 |①---|
口口口③ |②---|
口口口② |③---|
口口口① |----|
14
①②口口 |①---|
口口口口 |----|
口口口口 |②---|
口口口口 |----|
15
口口①② |①---|
口口口口 |----|
口口口口 |②---|
口口口口 |----|
16
口口口口 |①---|
口口②① |----|
口口口口 |②---|
口口口口 |----|
17
口口口口 |①---|
②①口口 |----|
口口口口 |②---|
口口口口 |----|
18
①口口口 |①---|
口②口口 |②---|
口口③口 |③---|
口口口口 |----|
19
口口口① |①---|
口口②口 |②---|
口③口口 |③---|
口口口口 |----|
20
口口口口 |①---|
口口③口 |②---|
口②口口 |③---|
①口口口 |----|
21
口口口口 |①---|
口③口口 |②---|
口口②口 |③---|
口口口① |----|
22
①②口口 |①---|
口口口口 |----|
口口口口 |②---|
口口口口 |----|
23
口口①② |①---|
口口口口 |----|
口口口口 |②---|
口口口口 |----|
24
口口口口 |①---|
口口②① |----|
口口口口 |②---|
口口口口 |----|
25
口口口口 |①---|
②①口口 |----|
口口口口 |②---|
口口口口 |----|
26
口口口口 |①---|
口口口口 |----|
①②口口 |②---|
口口口口 |----|
27
口口口口 |①---|
口口口口 |----|
口口①② |②---|
口口口口 |----|
28
口口口口 |①---|
口口口口 |----|
口口口口 |②---|
口口②① |----|
29
口口口口 |①---|
口口口口 |----|
口口口口 |②---|
②①口口 |----|
30
口口口口 |①---|
④④②② |②---|
①①③③ |③---|
口口口口 |④---|
31
口口口口 |①---|
④④②② |②---|
①①③③ |③---|
口口口口 |④---|
32
口口口① |①---|
口口口② |②---|
口口口③ |③---|
口口口④ |④---|
33
②②②② |①---|
口口口口 |②---|
口①①口 |----|
口口口口 |----|
34
口口口口 |----|
口口口口 |----|
口口口口 |----|
口口口口 |----|
35
口②②口 |①---|
口①①口 |②---|
口口口口
口口口口

③口口③
口④④口
口口口口 |③---|
口口口口 |④---|
36
口口口口 |①---|
口口口口 |②---|
①③④① |③---|
口②②口 |④---|
37
口口口口 |①---|
①②③④ |②---|
口口口口 |③---|
口口口口 |④---|
38
口①①口 |①---|
口口口口 |----|
口口口口
口口口口

②③口口
口口口口
口口口口 |②---|
口口口口 |③---|
39
口口口口 |①---|
①②口口 |②---|
③④口口 |③---|
口口口口 |④---|
40
口口口口 |①---|
口口口口 |②---|
口口口口 |③---|
①②③④ |④---|
41
口口④口 |①---|
口③口口 |②---|
口口②口 |③---|
口①口口 |④---|
42
①口口① |①---|
口口口口 |----|
口口口口 |----|
口口口口 |----|
43
口②②口 |①---|
口①①口 |②---|
口口口口
口口口口

③口口③
口④④口
口口口口 |③---|
口口口口 |④---|
44
口口口口 |①---|
口口口口 |②---|
①③④① |③---|
口②②口 |④---|
45
口口口口 |①---|
①②③④ |②---|
口口口口 |③---|
口口口口 |④---|
46
口①①口 |①---|
口口口口 |----|
口口口口
口口口口

口口③②
口口口口
口口口口 |②---|
口口口口 |③---|
47
口口口口 |①---|
口口②① |②---|
口口④③ |③---|
口口口口 |④---|
48
口口口口 |①---|
口口口口 |②---|
口口口口 |③---|
④③②① |④---|
49
口口口口 |①---|
口①①口 |----|
口口口口 |----|
口口口口 |----|
50
②②口口 |①---|
口口③③ |②---|
④④①① |③---|
口口口口 |④---|
51
①口口口 |①---|
②④④口 |②---|
③口口口 |③---|
口口口口 |④---|
52
口口口① |①---|
口④④② |②---|
口口口③ |③---|
口口口口 |④---|
53
口口口口 |①---|
①④④口 |②---|
②口口口 |③---|
③口口口 |④---|
54
口口口口 |①---|
口④④① |②---|
口④④② |③---|
口口口③ |④---|
55
③口口口 |①---|
②④④口 |②---|
①口口口 |③---|
口口口口 |④---|
56
口口口③ |①---|
口④④② |②---|
口口口① |③---|
口口口口 |④---|
57
口口口口 |①---|
③④④口 |②---|
②口口口 |③---|
①口口口 |④---|
58
口口口口 |①---|
口口口③ |②---|
口口口② |③---|
口口口① |----|
59
口口①口 |①---|
口口口口 |----|
口口口口 |----|
口口口口 |----|
60
口口口口 |①---|
口口①口 |----|
口口口口 |----|
口口口口 |----|
61
口口口口 |①---|
口口口口 |----|
口口①口 |----|
口口口口 |----|
62
口口口口 |①---|
口口口口 |----|
口口口口 |----|
口口①口 |----|
63
口口口口 |①---|
口口口口 |②---|
口④③口 |③---|
口②①口 |④---|
64
口④③口 |①---|
口②①口 |②---|
口口口口 |③---|
口口口口 |④---|
65
口口口口 |①---|
口②①口 |②---|
口④③口 |③---|
口口口口 |④---|
66
口口口口 |①---|
口④④口 |②---|
口口③口 |③---|
口②①口 |④---|
67
①口口口 |①---|
②口口口 |②---|
③口口口 |③---|
④口口口 |④---|
68
口口④④ |①---|
③③③③ |②---|
口②口口 |③---|
口①口口 |④---|

不確定度: 0

最終更新:2017年08月03日 01:08