FUJIMORI -祭- FESTIVAL
VENUS

ADVANCED

Level: 7
BPM: 158
Notes: 469

1
口口口口 |----|
口口口口 |----|
口口口口 |----|
口口口口 |----|
2
口口口口 |①---|
口口口口 |②---|
口④口口 |③---|
①②③④ |④---|
3
口口口口 |①---|
口④口口 |②---|
口口口口 |③---|
①②③④ |④---|
4
口口口口 |①---|
口口口口 |②---|
口④口口 |③---|
①②③④ |④---|
5
口口口口 |①---|
口②口口 |----|
口口口口 |----|
①口口口 |②---|
6
④口口口 |①---|
口口③口 |②-③-|
②⑤⑤口 |④---|
口①①口 |⑤---|
7
口口口④ |①---|
口③口口 |②-③-|
口⑤⑤② |④---|
口①①口 |⑤---|
8
④口口口 |①---|
口口③口 |②-③-|
②⑤⑤口 |④---|
口①①口 |⑤---|
9
口口口④ |①---|
口③口口 |②-③-|
口⑤⑤② |④---|
口①①口 |⑤---|
10
④口口口 |①---|
口口③口 |②-③-|
②⑤⑤口 |④---|
口①①口 |⑤---|
11
口口口④ |①---|
口③口口 |②-③-|
口⑤⑤② |④---|
口①①口 |⑤---|
12
④口口口 |①---|
口口③口 |②-③-|
②⑤⑤口 |④---|
口①①口 |⑤---|
13
口口口④ |①---|
口③口口 |②-③-|
口⑤⑤② |④---|
口①①口 |⑤---|
14
②口口口 |①---|
口口口口 |--②-|
口口口口
口①①口

口口口口
口口③口
口口④口 |--③-|
口口⑤口 |④-⑤-|
15
口口口口 |①---|
口②⑥① |②-③-|
口③口⑤ |④---|
口④口口 |⑤-⑥-|
16
口口口① |①---|
口口口② |----|
口口口③ |--②-|
口口口④ |③-④-|
17
口口口口 |①---|
②口①口 |②-③-|
③口口口
口口口口

口口口口
口口⑤口
口口口口 |④---|
④口口口 |⑤---|
18
口口口④ |①---|
口⑤口③ |②-③-|
口口口② |④---|
口①①口 |⑤---|
19
④口口口 |①---|
③口⑤口 |②-③-|
②口口口 |④---|
口①①口 |⑤---|
20
口口口④ |①---|
口⑤口③ |②-③-|
口口口② |④---|
口①①口 |⑤---|
21
④口口口 |①---|
③⑤⑤口 |②-③-|
②口口口 |④---|
口①①口 |⑤---|
22
口④④口 |--①-|
②口口① |②---|
②口口① |③---|
口③③口 |④---|
23
①口口① |①---|
口③②口 |②-③-|
口口④口 |④---|
口口口口 |----|
24
口口口口 |--①-|
④口口⑤ |②-③-|
口口口⑥ |④---|
③②①口 |⑤-⑥-|
25
口口①口 |①---|
口②口口 |②-③-|
口③口口 |④---|
口④口口 |----|
26
口口口口 |--①-|
④口口⑤ |②-③-|
口口口⑥ |④---|
③②①口 |⑤-⑥-|
27
口口①口 |①---|
口②口口 |②-③-|
口③口口 |④---|
口④口口 |----|
28
口口口口 |--①-|
④口口⑤ |②-③-|
口口口⑥ |④---|
③②①口 |⑤-⑥-|
29
口②①口 |①-②-|
口④③口 |③-④-|
口口⑤口 |⑤---|
口⑥⑥口 |⑥---|
30
③③⑥⑥ |①-②-|
②②⑤⑤ |③---|
①①④④ |④-⑤-|
口口口口 |⑥---|
31
③③⑥⑥ |①-②-|
②②⑤⑤ |③---|
①①④④ |④-⑤-|
口口口口 |⑥---|
32
⑦⑧口口 |①-②-|
⑤⑥口口 |③-④-|
③④口口 |⑤-⑥-|
①②口口 |⑦-⑧-|
33
口口③③ |①-②-|
口口②② |③---|
口口①① |----|
口口口口 |----|
34
口口口口 |①---|
口口口② |--②-|
③口口⑥ |③-④-|
⑤①①④ |⑤-⑥-|
35
③口口② |①-②③|
口①①④ |--④-|
⑤口口⑧ |⑤-⑥-|
⑦口口⑥ |⑦-⑧-|
36
③口口② |①-②③|
口①①④ |--④-|
⑤口口⑧ |⑤-⑥-|
⑦口口⑥ |⑦-⑧-|
37
口口口口 |①---|
③①①③ |②-③-|
口口口口
口②②口

⑥⑥⑥⑥
口⑤⑤口
口④④口 |--④-|
口口口口 |⑤-⑥-|
38
口口口口 |----|
②口口① |--①-|
④口口③ |②-③-|
口口口⑤ |④-⑤-|
39
④口口④ |①---|
口②②口 |②-③-|
⑤③③⑤ |--④-|
①口口口 |--⑤-|
40
口口口口 |--①-|
口②②③ |--②-|
口④口口 |--③-|
口①①⑤ |④-⑤-|
41
②③③② |①---|
口口口口 |②-③-|
口口口口
口①①口

口口口口
口口口口
口④④口 |--④-|
口⑤⑤口 |--⑤-|
42
口口口口 |----|
口口口① |--①-|
②口口⑤ |②-③-|
④口口③ |④-⑤-|
43
③口口② |①-②③|
口①①④ |--④-|
⑤口口⑧ |⑤-⑥-|
⑦口口⑥ |⑦-⑧-|
44
③口口② |①-②③|
口①①④ |--④-|
⑤口口⑧ |⑤-⑥-|
⑦口口⑥ |⑦-⑧-|
45
口口口口 |①---|
③①①③ |②-③-|
口口口口
口②②口

⑥⑥⑥⑥
口⑤⑤口
口④④口 |--④-|
口口口口 |⑤-⑥-|
46
口口口口 |----|
②口口① |--①-|
④口口③ |②-③-|
口口口⑤ |④-⑤-|
47
④口口④ |①---|
口②②口 |②-③-|
⑤③③⑤ |--④-|
①口口口 |--⑤-|
48
口口口口 |--①-|
⑤②②口 |--②-|
④④口口 |--③-|
③①①口 |④-⑤-|
49
①①①口 |①---|
口口口口 |----|
口口口口 |----|
口口口口 |----|
50
②②②④ |①---|
②③③⑤ |②---|
①①口⑥ |③-④⑤|
①口口口 |⑥---|
51
④口口口 |①---|
口口③口 |②-③-|
②⑤⑤口 |④---|
口①①口 |⑤---|
52
口口口④ |①---|
口③口口 |②-③-|
口⑤⑤② |④---|
口①①口 |⑤---|
53
④口口口 |①---|
口口③口 |②-③-|
②⑤⑤口 |④---|
口①①口 |⑤---|
54
口口口④ |①---|
口③口口 |②-③-|
口⑤⑤② |④---|
口①①口 |⑤---|
55
④口口口 |①---|
口口③口 |②-③-|
②⑤⑤口 |④---|
口①①口 |⑤---|
56
口口口④ |①---|
口③口口 |②-③-|
口⑤⑤② |④---|
口①①口 |⑤---|
57
④口口口 |①---|
口口③口 |②-③-|
②⑤⑤口 |④---|
口①①口 |⑤---|
58
口口口④ |①---|
口③口口 |②-③-|
口口口② |④---|
口①①口 |----|
59
口口口口 |①---|
口口口口 |----|
口口口口 |----|
口①①口 |----|
60
③口口口 |①-②-|
口口②口 |--③-|
口口①口
口口口口

口口口口
口④口口
口⑤⑥口 |--④-|
口口口口 |⑤-⑥-|
61
口口口口 |①---|
口口口⑥ |--②-|
⑤口口④ |③-④-|
③口①② |⑤-⑥-|
62
口口⑥口 |①---|
①⑤④口 |②-③-|
口③②口 |④-⑤-|
口口口口 |⑥---|
63
口⑦口① |①-②-|
②⑧⑥口 |③-④-|
口口⑤③ |⑤-⑥-|
④口口口 |⑦-⑧-|
64
口口口口 |①-②-|
④⑧口⑤ |③-④-|
③⑦口⑥ |⑤-⑥-|
口②①口 |⑦-⑧-|
65
口①口④ |①---|
口口③⑤ |②-③-|
口口②⑥ |④-⑤-|
口口口⑦ |⑥-⑦-|
66
⑤口口口 |①-②-|
⑥③口口 |③-④-|
⑦④②口 |⑤-⑥-|
⑧口①口 |⑦-⑧-|
67
口口口口 |①---|
口⑥⑤口 |②-③-|
⑦③②④ |④-⑤-|
口①①口 |⑥-⑦-|
68
③口④③ |--①-|
口口口④ |②---|
口①①口 |③---|
④②②口 |④---|

不確定度: 0

最終更新:2017年08月03日 01:08