Sephirot
SHIKI

BASIC

Level: 5
BPM: 154
Notes: 387

1
口口口口 |----|
口口口口 |----|
口口口口 |----|
口口口口 |----|
2
④口口口 |①-②-|
⑤口口③ |③---|
⑥口②口 |④--⑤|
口①口口 |--⑥-|
3
④口口口 |①-②-|
⑤口口③ |③---|
⑥口②口 |④--⑤|
口①口口 |--⑥-|
4
④口口口 |①-②-|
⑤口口③ |③---|
⑥口②口 |④--⑤|
口①口口 |--⑥-|
5
口④口① |①--②|
口口⑤② |--③-|
口口口③ |-④--|
口口口口 |⑤---|
6
④口口口 |①-②-|
⑤口口③ |③---|
⑥口②口 |④--⑤|
口①口口 |--⑥-|
7
④口口口 |①-②-|
⑤口口③ |③---|
⑥口②口 |④--⑤|
口①口口 |--⑥-|
8
④口口口 |①-②-|
⑤口口③ |③---|
⑥口②口 |④--⑤|
口①口口 |--⑥-|
9
口⑧⑦口 |①-②-|
口⑥⑤口 |③-④-|
口④③口 |⑤-⑥-|
口②①口 |⑦-⑧-|
10
②口口① |①---|
口口③口 |--②-|
口③口口 |----|
口口口口 |③---|
11
口口口口 |①---|
口①口口 |----|
口口①③ |----|
口口口② |②-③-|
12
②口②口 |①---|
口口口① |----|
口口口口 |--②-|
口③口口 |--③-|
13
口③口③ |①---|
口②口口 |②---|
口口口口 |--③-|
口口①口 |----|
14
①口口② |①---|
口③口口 |--②-|
口口④口 |----|
口口口口 |③-④-|
15
口④口口 |①---|
③口口口 |②---|
②口口口 |③---|
口①口口 |④---|
16
②②①① |①---|
口口口口 |----|
口口口口 |②---|
口口口口 |----|
17
口口口口 |①---|
②②①① |----|
口口口口 |②---|
口口口口 |----|
18
②口口① |①---|
口口③口 |--②-|
口③口口 |----|
口口口口 |③---|
19
口口口口 |①---|
口①口口 |----|
口口①③ |----|
口口口② |②-③-|
20
②口②口 |①---|
口口口① |----|
口口口口 |--②-|
口③口口 |--③-|
21
口③口③ |①---|
口②口口 |②---|
口口口口 |--③-|
口口①口 |----|
22
①口口② |①---|
口③口口 |--②-|
口口④口 |----|
口口口口 |③-④-|
23
口④口口 |①---|
③口口口 |②---|
②口口口 |③---|
口①口口 |④---|
24
口口①口 |①---|
口口口② |②---|
口口口③ |③---|
口口④口 |④---|
25
口口口口 |①---|
口②③口 |②---|
口①④口 |③---|
口口口口 |④---|
26
口口口口 |①---|
②②③③ |②---|
口口口口 |③---|
①①④④ |④---|
27
口口口口 |①---|
②②③③ |②---|
口口口口 |③---|
①①④④ |④---|
28
②②③③ |①---|
口口口口 |②---|
①①④④ |③---|
口口口口 |④---|
29
③③③③ |①---|
①①①① |②---|
④④④④ |③---|
②②②② |④---|
30
口口口口 |①---|
②②③③ |②---|
口口口口 |③---|
①①④④ |④---|
31
口口口口 |①---|
②②③③ |②---|
口口口口 |③---|
①①④④ |④---|
32
②②③③ |①---|
口口口口 |②---|
①①④④ |③---|
口口口口 |④---|
33
口口口口 |①---|
口①①口 |----|
口口口口 |----|
口口口口 |----|
34
口口口口 |①---|
口口口口 |②---|
口口口口 |③---|
①②③④ |④---|
35
口口口口 |①---|

口口口口
口口口口

口口口口
口口口 |--②-|
口口④③ |③---|
口口口口 |④---|
36
口口 |①---|
口口
口口
口口口口

口口口口
口口口口 |--②-|
口口 |③---|
口口④③ |④---|
37
口口口 |①---|
口口口 |②---|
口口口
①口口

口口口口
口口口口
口口口口 |----|
口口口 |③---|
38
口口口口 |①---|
口口口口 |②---|
③④口口 |③---|
口口②① |④---|
39
口口口口 |①---|
③④②① |②---|
口口口口 |③---|
口口口口 |④---|
40
|①---|
口口口口
口口口口
口口口口

口口口
③口口口 |--②-|
口④口口 |③---|
口口口口 |④---|
41
口口口口 |①---|
口③③口 |②---|
口口口口 |----|
口口①② |③---|
42
口口口口 |①---|
口口口口 |②---|
口口口口 |③---|
①②④③ |④---|
43
口口口口 |①---|
口口口口 |②---|
①②④③ |③---|
口口口口 |④---|
44
口 |①---|
口口口口
口口口口
口口口口

口口口
口口口③ |--②-|
口口④口 |③---|
口口口口 |④---|
45
口口口 |①---|
口口口 |②---|
口口口
①口口

口口口口
口口口口
口口口口 |----|
口口口 |③---|
46
③④口口 |①---|
口口口口 |②---|
口口口口 |③---|
口口②① |④---|
47
口口口口 |①---|
③④口口 |②---|
口口②① |③---|
口口口口 |④---|
48
口口口口 |①---|
口口②① |②---|
③④口口 |③---|
口口口口 |④---|
49
口口②① |①---|
口口口口 |②---|
口口口口 |③---|
③④口口 |④---|
50
口口口口 |①---|
|----|
口口口口 |----|
口口口口 |----|
51
口口口口 |----|
口口口口 |----|
口口口口 |----|
口口口口 |----|
52
口口口口 |----|
口口口口 |----|
口口口口 |----|
口口口口 |----|
53
口口口口 |①---|
口口口 |----|
口口口口 |----|
口口口口 |----|
54
②口口① |①---|
口口③口 |--②-|
口口口口 |----|
口口口口 |③---|
55
口口口口 |①---|
口口口口 |----|
口①口③ |----|
口口口② |②-③-|
56
②口②口 |①---|
口口口① |----|
口口口口 |--②-|
口③口口 |--③-|
57
口③口③ |①---|
口②口口 |②---|
口口口口 |--③-|
口口①口 |----|
58
口口口口 |①---|
口口口口 |②---|
③口口④ |③---|
①口口② |④---|
59
②②③③ |①---|
口①①口 |----|
口口口口 |②---|
口口口口 |③---|
60
口口口口 |①-②-|
口口口口 |③-④-|
⑤⑥⑦⑧ |⑤-⑥-|
①②③④ |⑦-⑧-|
61
⑤⑥⑦⑧ |①-②-|
①②③④ |③-④-|
口口口口 |⑤-⑥-|
口口口口 |⑦-⑧-|
62
口口口口 |①-②-|
⑤⑥⑦⑧ |③-④-|
①②③④ |⑤-⑥-|
口口口口 |⑦-⑧-|
63
①口口② |①---|
口口口口 |②---|
口③④口 |③-④-|
口⑤⑥口 |⑤-⑥-|
64
①口口② |①---|
口口口口 |②---|
口③④口 |③-④-|
口⑤⑥口 |⑤-⑥-|
65
⑤⑥⑦⑧ |①-②-|
①②③④ |③-④-|
口口口口 |⑤-⑥-|
口口口口 |⑦-⑧-|
66
口口口口 |①---|
口口口口 |②---|
口①④口 |③---|
口③②口 |④---|
67
②②③③ |①---|
①①④④ |②---|
口口口口 |③---|
口口口口 |④---|
68
②②③③ |①---|
口口口口 |②---|
①①④④ |③---|
口口口口 |④---|
69
口口口口 |①---|
口①①口 |----|
②③④⑤ |②-③-|
口口口口 |④-⑤-|
70
口口口② |①---|
①口口口 |----|
口口口口 |②---|
口口口口 |----|
71
口口口④ |①-②-|
口③⑤口 |③---|
⑥②口口 |④--⑤|
口①口口 |--⑥-|
72
①口④口 |①--②|
口②口口 |--③-|
⑤口⑥③ |-④--|
口口口口 |⑤-⑥-|
73
口口口④ |①-②-|
口③⑤口 |③---|
⑥②口口 |④--⑤|
口①口口 |--⑥-|
74
①口④口 |①--②|
口②口口 |--③-|
⑤口⑥③ |-④--|
口口口口 |⑤-⑥-|
75
口口口④ |①-②-|
口③⑤口 |③---|
⑥②口口 |④--⑤|
口①口口 |--⑥-|
76
①口④口 |①--②|
口②口口 |--③-|
⑤口⑥③ |-④--|
口口口口 |⑤-⑥-|
77
口口口④ |①-②-|
口③⑤口 |③---|
⑥②口口 |④--⑤|
口①口口 |--⑥-|
78
①口④口 |①--②|
口②口口 |--③-|
⑤口⑥③ |-④--|
口口口口 |⑤-⑥-|

不確定度: 0

最終更新:2017年07月30日 19:29