Sephirot
SHIKI

ADVANCED

Level: 9
BPM: 154
Notes: 776

1
口口口口 |----|
口口口口 |----|
口口口口 |----|
口口口口 |----|
2
④口③③ |①-②-|
口⑤⑥口 |③---|
④②口口 |④--⑤|
①⑤⑥口 |--⑥-|
3
④口③③ |①-②-|
口⑤⑥口 |③---|
④②口口 |④--⑤|
①⑤⑥口 |--⑥-|
4
④口③③ |①-②-|
口⑤⑥口 |③---|
④②口口 |④--⑤|
①⑤⑥口 |--⑥-|
5
口③②① |①--②|
口⑤⑥④ |--③-|
口③②① |-④--|
口⑤⑥④ |⑤-⑥-|
6
④口③③ |①-②-|
口⑤⑥口 |③---|
④②口口 |④--⑤|
①⑤⑥口 |--⑥-|
7
④口③③ |①-②-|
口⑤⑥口 |③---|
④②口口 |④--⑤|
①⑤⑥口 |--⑥-|
8
口①②口 |①-②-|
③口口④ |③-④-|
口⑤⑥口 |⑤-⑥-|
⑦口口⑧ |⑦-⑧-|
9
①⑨⑩② |①②③④|
⑪③④⑫ |⑤⑥⑦⑧|
⑤⑬⑭⑥ |⑨⑩⑪⑫|
⑮⑦⑧⑯ |⑬⑭⑮⑯|
10
①口口④ |①-②-|
口③②口 |③-④-|
①⑤⑥④ |⑤-⑥-|
口⑦⑦口 |⑦---|
11
口①①⑧ |①-②-|
⑦口⑧② |③-④-|
口⑦④⑥ |⑤-⑥-|
③⑤口口 |⑦-⑧-|
12
①口④⑥ |①-②-|
口①⑥⑧ |③-④-|
③⑦⑧口 |⑤-⑥-|
口⑤口② |⑦-⑧-|
13
①③④口 |①-②-|
⑥①口⑥ |③-④-|
③口口④ |⑤-⑥-|
口⑤口② |----|
14
①⑦⑦④ |①-②-|
口⑤②口 |③-④-|
①③⑥④ |⑤-⑥-|
口⑧⑧口 |⑦-⑧-|
15
口口口② |①-②-|
①③④口 |③-④-|
口①口口
③口口口

口⑤⑥口
口口口⑧
⑤⑦口⑥ |⑤-⑥-|
口口⑧口 |⑦-⑧-|
16
口②③④ |①---|
①口口口 |------②③|
口口口口 |④---|
口①口口 |----|
17
口口口口 |①---|
口①口口 |------②③|
口口口口 |④---|
①②③④ |----|
18
①口口④ |①-②-|
口③②口 |③-④-|
①⑤⑥④ |⑤-⑥-|
口⑦⑦口 |⑦---|
19
口①①⑧ |①-②-|
⑦口⑧② |③-④-|
口⑦④⑥ |⑤-⑥-|
③⑤口口 |⑦-⑧-|
20
①口④⑥ |①-②-|
口①⑥⑧ |③-④-|
③⑦⑧口 |⑤-⑥-|
口⑤口② |⑦-⑧-|
21
①③④口 |①-②-|
⑥①口⑥ |③-④-|
③口口④ |⑤-⑥-|
口⑤口② |----|
22
①⑦⑦④ |①-②-|
口⑤②口 |③-④-|
①③⑥④ |⑤-⑥-|
口⑧⑧口 |⑦-⑧-|
23
①⑥⑥口 |①--②|
④⑤③② |③--④|
口①口口 |⑤-⑥-|
口口口口 |----|
24
口口口口 |①---|
口口口口 |------②③|
④③②口 |④---|
①口口① |----|
25
①口口① |①---|
口②③④ |------②③|
口口口口 |④---|
口口口口 |----|
26
⑦⑦⑤口 |①-②-|
口③④口 |③④-⑤|
口口⑥② |-⑥--|
①口⑧⑧ |⑦-⑧-|
27
口口⑤口 |①-②-|
⑩③④口 |③④-⑤|
口口⑥② |--⑥---⑦⑧|
①⑦⑧⑨ |⑨-⑩-|
28
口口⑤口 |①-②-|
口③④口 |③④-⑤|
口口口②
①口口口

口口口⑧
口口口⑧
口口⑥口 |-⑥--|
⑦⑦口口 |⑦-⑧-|
29
①⑤④口 |①---|
③口②⑥ |②--③|
⑥②口③ |-④--|
口④⑤① |⑤-⑥-|
30
⑦⑦⑤口 |①-②-|
口③④口 |③④-⑤|
口口⑥② |-⑥--|
①口⑧⑧ |⑦-⑧-|
31
口口⑤口 |①-②-|
⑩③④口 |③④-⑤|
口口⑥② |--⑥---⑦⑧|
①⑦⑧⑨ |⑨-⑩-|
32
口⑤⑥④ |①-②③|
口③口口 |④⑤-⑥|
口口口②
①口口口

口口口口
口口口口
口⑪⑦口 |--⑦---⑧⑨|
⑪⑧⑨⑩ |⑩-⑪-|
33
口口口口 |①---|
口口①口 |--②③|
口口③①
口②口口

④⑤⑥⑦
⑧⑨⑩⑪
口口口口 |④⑤⑥⑦|
口口口口 |⑧⑨⑩⑪|
34
⑦⑧口口 |①②③④|
口口口口 |⑤⑥⑦⑧|
④⑤⑥口
①②③口

口口⑨口
⑩⑪⑫口
口口口口 |⑨⑩⑪⑫|
⑬⑭⑮口 |⑬⑭⑮-|
35
|①---|
口口口口
口口口口
口口口口

口口口
④⑤⑥⑦ |--②③|
口②③口 |④⑤⑥⑦|
⑧⑨⑩⑪ |⑧⑨⑩⑪|
36
|①---|
口口口口
口口口口
口口口口

口口口
口口②口 |--②③|
口③口口
口口口口

口口口⑤

口口口④ |④-⑤-|
口⑥⑦口 |⑥⑦-⑧|
37
口口口口 |-①②-|
口口口 |----|
口口口口


口口口口
④口口口
口口口口 |----|
口口口 |③-④-|
38
口⑥⑤④ |①②③④|
口⑧⑦口 |⑤⑥⑦⑧|
口③②①
口口口口

口口口口
⑯口口⑮
口⑭⑬⑫ |⑨⑩⑪⑫|
口⑪⑩⑨ |⑬⑭⑮⑯|
39
口③②① |①②③④|
口⑧⑦口 |⑤⑥⑦⑧|
口口口口
口⑥⑤④

⑯⑮⑭⑬
口口口口
⑫⑪⑩⑨ |⑨⑩⑪⑫|
口口口口 |⑬⑭⑮⑯|
40
口口口口 |①---|

口口口口
口口口口

口口口口
口口口 |--②③|
口口③口
口②口口

口⑦⑥口
④口口口
|④-⑤-|
⑤口口口 |⑥⑦-⑧|
41
|-①②-|
口口口口 |----|
口口口
口口口口

口口③
口口口口
口口口口 |----|
口口口口 |③---|
42
⑨⑫口口 |①②③④|
④⑤⑥⑪ |⑤⑥⑦⑧|
口⑦⑧口 |⑨--⑩|
①②③⑩ |-⑪-⑫|
43
口口①③ |①--②|
口④口口 |-③-④|
口口②口
口口口口

口口口口
口口⑤口
⑦⑧⑨口 |⑤--⑥|
口口口⑥ |-⑦⑧⑨|
44
口口口 |①---|
口口口
口口口
口口口口

口口口口
口口③口 |--②③|
口口口
口②口口

口④口⑤
口口口口
口⑥⑦口 |④-⑤-|
口 |⑥⑦-⑧|
45
口口口口 |-①②-|
|----|
口口口口
口口口

口口口口
口口口
口口口口 |----|
口口口口 |③---|
46
⑨口口⑩ |①②③④|
④⑤⑥口 |⑤⑥⑦⑧|
口⑦⑧口 |⑨--⑩|
①②③⑪ |--⑪-|
47
⑨口口口 |①②③④|
④⑤⑥⑩ |⑤⑥⑦⑧|
⑪⑦⑧口 |⑨-⑩-|
①②③⑫ |⑪-⑫-|
48
⑨口口⑪ |①②③④|
④⑤⑥口 |⑤⑥⑦⑧|
口⑦⑧⑩ |⑨--⑩|
①②③口 |--⑪-|
49
口口口口 |①②③④|
④⑤⑥口 |⑤⑥⑦⑧|
口⑦⑧口
①②③口

⑨⑫⑪⑩
口口口口
口口口口 |⑨⑩⑪⑫|
⑯⑮⑭⑬ |⑬⑭⑮⑯|
50
口口口口 |①---|
|----|
口口口口 |----|
口口口口 |----|
51
口口口口 |----|
口口口口 |----|
口口口口 |----|
口口口口 |----|
52
口口口口 |----|
口口口口 |----|
口口口口 |----|
口口口口 |----|
53
口口口口 |①---|
口口口 |----|
口口口口 |----|
口口口口 |----|
54
①口口② |①---|
口口口口 |--②-|
①口口② |----|
口③③口 |③---|
55
口①①③ |①---|
②口③口 |----|
口②口口 |----|
口口口口 |②-③-|
56
①口口② |①---|
口①②③ |----|
口口③口 |--②-|
口口口口 |--③-|
57
①②③口 |①---|
④①口④ |②-③-|
②口口③ |--④-|
口口口口 |----|
58
口⑦⑧口 |①-②-|
口⑤⑥口 |③-④-|
口③④口 |⑤-⑥-|
口①②口 |⑦-⑧-|
59
口口口口 |①---|
口口③口 |--②③|
口②口口
①①①①

④④口口
⑥口口口
口口⑤⑤ |④--⑤|
⑥口口口 |--⑥-|
60
⑥⑯⑮⑤ |①②③④|
⑭④③⑬ |⑤⑥⑦⑧|
⑧⑫⑪⑦ |⑨⑩⑪⑫|
⑩②①⑨ |⑬⑭⑮⑯|
61
⑧⑯⑮⑦ |①②③④|
⑭⑥⑤⑬ |⑤⑥⑦⑧|
④⑫⑪③ |⑨⑩⑪⑫|
⑩②①⑨ |⑬⑭⑮⑯|
62
口口口口 |----|
口口口口 |----|
口口口口 |----|
口口口口 |----|
63
①⑥⑤① |①--②|
⑥②③⑤ |③--④|
⑧②③⑦ |⑤-⑥-|
④⑧⑦口 |⑦-⑧-|
64
②口口③ |①--②|
口②③口 |③---|
口①①口
口口口口

口⑤④口
口口口口
⑤⑦⑥④ |④-⑤-|
口⑦⑥口 |⑥-⑦-|
65
⑤⑥⑧⑦ |①②③④|
①②④③ |⑤⑥⑦⑧|
口口口口
口口口口

口口口口
⑰⑱⑲⑳
⑬⑭⑮⑯ |⑨⑩⑪⑫⑬⑭|
⑨⑩⑪⑫ |⑮⑯⑰⑱⑲⑳|
66
①口口③ |①--②|
口口口口 |③-④-|
口口口口
②④口口

⑧口⑤口
⑥⑥⑦⑦
口⑧口⑤ |⑤-⑥-|
口口口口 |⑦-⑧-|
67
口③④③ |①-②-|
⑦⑤⑧⑥ |③-④-|
⑤⑦⑥⑧ |⑤-⑥-|
①②①口 |⑦-⑧-|
68
③④③口 |①-②-|
⑧⑥⑦⑤ |③-④-|
⑥⑧⑤⑦ |⑤-⑥-|
口①②① |⑦-⑧-|
69
⑤④③② |①---|
⑨⑧⑦⑥ |--②③|
口口⑪⑩ |④⑤⑥⑦|
口①①口 |⑧⑨⑩⑪|
70
口③②④ |①---|
口口口口 |--②③|
口①口口 |④---|
口口口口 |----|
71
口口口口 |①-②-|
口③④口 |③④--|
口口口口
①①②②

口口⑤⑤
口口口口
口口⑥⑥ |⑤--⑥|
口口⑦⑦ |--⑦-|
72
①①口口 |①--②|
口口口口 |--③-|
②②口口
③③口口

口口口口
⑤⑤⑥⑥
⑦⑦④口 |④⑤--|
口口口口 |⑥-⑦-|
73
口口①① |①-②-|
④④口口 |③④--|
口口口口
②②口③

⑤⑤口口
口口口口
⑥⑥口口 |⑤--⑥|
⑦⑦口口 |--⑦-|
74
口口①① |①--②|
口口口口 |--③-|
口口②②
口口③③

⑥⑥口口
口口⑤⑤
口④⑦⑦ |④⑤--|
口口口口 |⑥-⑦-|
75
口口口口 |①-②-|
口③④口 |③④--|
口口口口
①①②②

口口⑤⑤
口口口口
口口⑥⑥ |⑤--⑥|
口口⑦⑦ |--⑦-|
76
①①口口 |①--②|
口口口口 |--③-|
②②口口
③③口口

口口口口
⑤⑤⑥⑥
⑦⑦④口 |④⑤--|
口口口口 |⑥-⑦-|
77
口口①① |①-②-|
④④口口 |③④--|
口口口口
②②口③

⑤⑤口口
口口口口
⑥⑥口口 |⑤--⑥|
⑦⑦口口 |--⑦-|
78
口口①① |①--②|
口口口口 |--③-|
口口②②
口口③③

⑥⑥口口
口口⑤⑤
口④⑦⑦ |④⑤--|
口口口口 |⑥-⑦-|

不確定度: 0

最終更新:2017年07月30日 19:29