ECO FIGHTER
入尾信充

ADVANCED

Level: 5
BPM: 140
Notes: 381

1
口口口口 |----|
口口口口 |----|
口口口口 |----|
口口口口 |----|
2
口口口口 |①---|
口口口口 |----|
①①①① |----|
口口口口 |----|
3
口口口口 |----|
口口口口 |----|
口口口口 |----|
口口口口 |----|
4
口口口口 |①---|
①①①① |----|
口口口口 |----|
口口口口 |----|
5
口口口口 |----|
口口口口 |----|
④②①③ |①②--|
口口口口 |③④--|
6
口口口口 |①---|
口①①口 |----|
口口口口 |----|
口口口口 |----|
7
口口口口 |①---|
⑥⑥⑤⑤ |②--③|
④④③③ |-④-⑤|
②②①① |-⑥--|
8
口口口口 |①---|
⑤⑤④④ |②--③|
③③口口 |-④-⑤|
①①②② |----|
9
⑤⑥⑥⑤ |①---|
④口口④ |②--③|
③口口③ |-④-⑤|
①②②① |-⑥--|
10
④③③④ |①---|
⑤②②⑤ |②--③|
口①①口 |-④-⑤|
口口口口 |----|
11
口口口口 |--①-|
口口口口 |②---|
①①②② |③---|
③口④口 |④---|
12
口口口口 |①---|
口口②口 |②--③|
④①⑤③ |-④-⑤|
口口口口 |----|
13
②②口口 |--①-|
①①口口 |②---|
③口④口 |③---|
口口口口 |④---|
14
口口口口 |①---|
③③③③ |②---|
口①口② |③---|
口口口口 |----|
15
口口口口 |----|
②③口口 |①---|
口①①口 |②---|
口口口口 |③---|
16
口③④⑤ |①---|
口口①② |②---|
口口口口 |③④⑤-|
口口口口 |----|
17
口口口口 |--①-|
②口③① |②---|
①口口② |③---|
口④口口 |④---|
18
口口口口 |①---|
口①口口 |②---|
口口口口
口口②口

口口口口
口⑤⑤口
③③④④ |③-④-|
口口口口 |⑤---|
19
口口口口 |--①-|
口口③口 |②-③-|
口②口口
口口①口

口口⑤口
口④口口
⑥⑥口口 |④-⑤-|
口口口口 |--⑥-|
20
口口口口 |①---|
②②②② |--②-|
口口①① |----|
口口口口 |----|
21
口口口口 |--①-|
口口③口 |②-③-|
口②口口
口口①口

④⑤⑥口
口口口口
⑦⑦口口 |④⑤⑥-|
口口口口 |--⑦-|
22
口口口口 |①---|
②②②② |--②-|
口口①① |----|
口口口口 |----|
23
口口口口 |--①-|
②口口② |②---|
①口口① |③-④-|
③④⑤⑥ |⑤-⑥-|
24
口口口口 |----|
口①口② |①---|
口③③口 |②--③|
口口口口 |----|
25
口口口口 |--①-|
①②⑥口 |②---|
口⑤④口 |③-④-|
口③口口 |⑤-⑥-|
26
口口口口 |--①-|
②③④口 |②---|
①口口口 |③--④|
口口口口 |----|
27
口口口口 |①---|
口口口口 |--②-|
①①②② |----|
口口口口 |----|
28
口口口口 |①---|
口口口口 |--②-|
②②口口 |----|
①①口口 |----|
29
④口口④ |①---|
口③③口 |--②-|
②②②② |----|
①①①① |③-④-|
30
口口口口 |----|
口口口口 |----|
口口口口 |----|
口口口口 |----|
31
口口口口 |--①-|
口口⑥⑤ |②-③-|
①②③④ |④-⑤-|
口口口口 |⑥---|
32
口口口口 |①---|
口口口口 |--②-|
③③③③ |----|
①②①② |--③-|
33
口⑦⑥⑤ |--①-|
①②③④ |②-③-|
口口口口 |④-⑤-|
口口口口 |⑥-⑦-|
34
口口口口 |①---|
①③③② |--②-|
口①②口 |----|
口口口口 |--③-|
35
口口口口 |--①-|
口④口⑤ |②-③-|
口②③口 |④-⑤-|
口口①口 |----|
36
口口口口 |①---|
口口口口 |--②-|
③③③③ |----|
①②①② |--③-|
37
口⑦⑥⑤ |--①-|
①②③④ |②-③-|
口口口口 |④-⑤-|
口口口口 |⑥-⑦-|
38
口口口口 |①---|
①③③② |--②-|
口①②口 |----|
口口口口 |--③-|
39
口口口口 |--①-|
口④口⑤ |②-③-|
口②③口 |④-⑤-|
口口①口 |----|
40
②③③② |①---|
口④④口 |②-③-|
⑤①①⑤ |--④-|
口口口口 |⑤---|
41
口口口口 |①---|
⑤⑤口口 |②-③-|
③④④③ |--④-|
②①①② |⑤---|
42
②②③③ |①---|
口口①① |②-③-|
口④④口 |--④-|
⑤口口⑤ |--⑤-|
43
⑤口口⑤ |--①-|
①②口④ |②-③-|
口口③口 |--④-|
口口口口 |--⑤-|
44
口①①口 |①---|
口②②口 |②-③-|
③口口③ |--④-|
口④④口 |----|
45
口口口口 |①---|
④④口口 |②-③-|
②③③② |--④-|
①口口① |----|
46
②②③③ |①---|
口口①① |②-③-|
口口口口
口口口口

口口口口
口口④④
口口口口 |--④-|
口口口⑤ |--⑤-|
47
口口口口 |①---|
口口口口 |----|
口口口口 |--②-|
②口①② |----|
48
口口口口 |①---|
口口口口 |----|
口口口口 |----|
口①①口 |----|
49
口口口口 |----|
口口口口 |----|
口口口口 |----|
口口口口 |----|
50
口口口口 |①---|
⑥⑥⑤⑤ |②--③|
④④③③ |-④-⑤|
②②①① |-⑥--|
51
口口口口 |①---|
⑤⑤④④ |②--③|
③③口口 |-④-⑤|
①①②② |----|
52
⑤⑥⑥⑤ |①---|
④口口④ |②--③|
③口口③ |-④-⑤|
①②②① |-⑥--|
53
④③③④ |①---|
⑤②②⑤ |②--③|
口①①口 |-④-⑤|
口口口口 |----|
54
口口口口 |①---|
⑥⑥⑤⑤ |②--③|
④④③③ |-④-⑤|
②②①① |-⑥--|
55
⑤⑤口口 |①---|
口口④④ |②--③|
③③口口 |-④-⑤|
①①②② |----|
56
口口口口 |----|
口口口口 |----|
⑧⑥⑤⑦ |①②③④|
④②①③ |⑤⑥⑦⑧|
57
口口③口 |①②-③|
口②①口 |----|
口口口口 |④⑤-⑥|
⑥口⑤④ |----|
58
口口口口 |①②-③|
③③口口 |----|
口口②① |----|
口口口口 |----|


不确定度: 0

最終更新:2012年11月11日 16:28