倉野川音頭
日向美ビタースイーツ♪&ひなちくん

BASIC

Level: 1
BPM: 113
Notes: 124

1
口口口口 |----|
口口口口 |----|
口口口口 |----|
口口口口 |----|
2
口①口口 |①---|
口②口口 |----|
口口口口 |②---|
口口口口 |----|
3
口口口口 |①---|
口口口口 |----|
口①口口 |②---|
口②口口 |----|
4
口口口口 |①---|
口口口口 |----|
口口②口 |②---|
口口①口 |----|
5
口口②口 |①---|
口口①口 |----|
口口口口 |②---|
口口口口 |----|
6
口①口口 |①---|
口②口口 |----|
口口口口 |②---|
口口口口 |----|
7
口口口口 |①---|
口口口口 |----|
口①口口 |②---|
口②口口 |----|
8
口口口口 |①---|
口口口口 |----|
口口②口 |②---|
口口①口 |----|
9
口口②口 |①---|
口口①口 |----|
口口口口 |②---|
口口口口 |----|
10
①②口口 |①---|
口口口口 |----|
口口口口 |②---|
口口口口 |----|
11
口口①② |①---|
口口口口 |----|
口口口口 |②---|
口口口口 |----|
12
口口口口 |①---|
口口②① |----|
口口口口 |②---|
口口口口 |----|
13
口口口口 |①---|
②①口口 |----|
口口口口 |②---|
口口口口 |----|
14
口口口口 |①---|
口口口口 |----|
①②口口 |②---|
口口口口 |----|
15
口口口口 |①---|
口口口口 |----|
口口①② |②---|
口口口口 |----|
16
口口口口 |①---|
口口口口 |----|
口口口口 |②---|
口口②① |----|
17
口口口口 |①---|
口口口口 |----|
口口口口 |②---|
②①口口 |----|
18
口口口口 |①---|
口口口口 |----|
口口口口 |②---|
①②口口 |----|
19
③口口③ |①---|
口②②口 |②---|
口①①口 |③---|
口口口口 |----|
20
①口口口 |①---|
②口口口 |----|
口口口口 |②---|
口口口口 |----|
21
口口口口 |①---|
口口口口 |----|
①口口口 |②---|
②口口口 |----|
22
口口口口 |①---|
口口口口 |----|
口②口口 |②---|
口①口口 |----|
23
口②口口 |①---|
口①口口 |----|
口口口口 |②---|
口口口口 |----|
24
口口口口 |----|
口①①口 |----|
口口口口 |①---|
口口口口 |----|
25
口口口口 |----|
口口口口 |----|
口①①口 |①---|
口口口口 |----|
26
口口口口 |①---|
①②口口 |----|
口口口口 |②---|
口口口口 |----|
27
口口口口 |①---|
口口①② |----|
口口口口 |②---|
口口口口 |----|
28
口口口① |①---|
口口口② |----|
口口口口 |②---|
口口口口 |----|
29
口口口口 |①---|
口口口口 |----|
口口口① |②---|
口口口② |----|
30
口口口口 |①---|
口口口口 |----|
口口②口 |②---|
口口①口 |----|
31
口口②口 |①---|
口口①口 |----|
口口口口 |②---|
口口口口 |----|
32
口口口口 |----|
口①①口 |----|
口口口口 |①---|
口口口口 |----|
33
口口口口 |----|
口口口口 |----|
口①①口 |①---|
口口口口 |----|
34
口口口口 |①---|
口口②① |----|
口口口口 |②---|
口口口口 |----|
35
口口口口 |①---|
②①口口 |----|
口口口口 |②---|
口口口口 |----|
36
口①口口 |①---|
口②口口 |----|
口口口口 |②---|
口口口口 |----|
37
口口口口 |①---|
口口口口 |----|
口①口口 |②---|
口②口口 |----|
38
口口口口 |①---|
口口口口 |----|
口口②口 |②---|
口口①口 |----|
39
口口②口 |①---|
口口①口 |----|
口口口口 |②---|
口口口口 |----|
40
口①口口 |①---|
口②口口 |----|
口口口口 |②---|
口口口口 |----|
41
口口口口 |①---|
口口口口 |----|
口①口口 |②---|
口②口口 |----|
42
口口口口 |①---|
口口口口 |----|
口口②口 |②---|
口口①口 |----|
43
口口②口 |①---|
口口①口 |----|
口口口口 |②---|
口口口口 |----|
44
①②口口 |①---|
口口口口 |----|
口口口口 |②---|
口口口口 |----|
45
口口①② |①---|
口口口口 |----|
口口口口 |②---|
口口口口 |----|
46
口口口口 |①---|
口口②① |----|
口口口口 |②---|
口口口口 |----|
47
口口口口 |①---|
②①口口 |----|
口口口口 |②---|
口口口口 |----|
48
口口口口 |①---|
口口口口 |----|
①②口口 |②---|
口口口口 |----|
49
口口口口 |①---|
口口口口 |----|
口口①② |②---|
口口口口 |----|
50
口口口口 |①---|
口口口口 |----|
口口口口 |②---|
口口②① |----|
51
口口口口 |①---|
口口口口 |----|
口口口口 |②---|
②①口口 |----|
52
口口口口 |①---|
口口口口 |----|
口口口口 |②---|
①②口口 |----|
53
③口口③ |①---|
口②②口 |②---|
口①①口 |③---|
口口口口 |----|
54
①②口口 |①---|
口口口口 |----|
口口口口 |②---|
口口口口 |----|
55
口口①② |①---|
口口口口 |----|
口口口口 |②---|
口口口口 |----|
56
口口②① |①---|
口口口口 |----|
口口口口 |②---|
口口口口 |----|
57
③口口③ |①---|
口②②口 |②---|
口①①口 |③---|
口口口口 |----|

不確定度: 0

最終更新:2017年07月30日 19:23