倉野川音頭
日向美ビタースイーツ♪&ひなちくん

ADVANCED

Level: 5
BPM: 113
Notes: 336

1
口口口口 |----|
口口口口 |----|
口口口口 |----|
口口口口 |----|
2
口口④④ |①---|
口口③③ |②---|
②②口口 |③---|
①①口口 |④---|
3
①口口口 |①---|
口②口口 |②---|
口口③口 |③---|
口口口口 |----|
4
④④口口 |①---|
③③口口 |②---|
口口②② |③---|
口口①① |④---|
5
口口口① |①---|
口口②口 |②---|
口③口口 |③---|
口口口口 |----|
6
①口口口 |①---|
口②口口 |②---|
口口③口 |③---|
口口口④ |④---|
7
口口口① |①---|
口口②口 |②---|
口③口口 |③---|
④口口口 |④---|
8
④④口口 |①---|
口口②② |②---|
③③口口 |③---|
口口①① |④---|
9
口口口口 |①---|
口口①① |②---|
②②口口
口口口口

口口口口
④口口④
口口口口 |③---|
口③③口 |④---|
10
①口口③ |①---|
口②④口 |②---|
口口口口 |③---|
口口口口 |④---|
11
口口口口 |①---|
口口口口 |②---|
口②口口
口①口口

口口口口
③口口③
口④④口 |③---|
口口口口 |④---|
12
②口口④ |①---|
①口口③ |②---|
口口口口 |③---|
口口口口 |④---|
13
口③③口 |①---|
口③③口 |②---|
①口口② |③---|
口口口口 |----|
14
口口口口 |①---|
口口口① |----|
口口②口 |②---|
口口口口 |----|
15
口口口口 |①---|
①口口口 |----|
口②口口 |②---|
口口口口 |----|
16
口口口口 |①---|
口口口口 |②---|
④口口③ |③---|
②口口① |④---|
17
③②②③ |①---|
口①①口 |②---|
口④④口 |③---|
口口口口 |④---|
18
①①口口 |①---|
口口口口 |----|
口口口口
口口口口

口③②口
口口口口
③口口② |②---|
口口口口 |③---|
19
口口口口 |①---|
口口口口 |②---|
口②②口
口①①口

③③③③
口口口口
口④④口 |③---|
口口口口 |④---|
20
①口③② |①---②-|
④⑤口口 |③---④-|
口口⑦⑥ |⑤---⑥-|
⑧口口口 |⑦---⑧-|
21
⑧口口口 |①---②-|
口口⑦⑥ |③---④-|
④⑤口口 |⑤---⑥-|
口①③② |⑦---⑧-|
22
口口②① |----①-|
③④口口 |②---③-|
口口⑥⑤ |④---⑤-|
⑦口口口 |⑥---⑦-|
23
⑧口口口 |①---②-|
口口⑦⑥ |③---④-|
④⑤口口 |⑤---⑥-|
口①③② |⑦---⑧-|
24
口口口④ |----①-|
口口③口 |②---③-|
①②口口 |④---|
口口口口 |----|
25
④口口口 |----①-|
口③口口 |②---③-|
口口②① |④---|
口口口口 |----|
26
口口口口 |----|
口①②口 |①---|
口③口口 |②---|
口口口口 |③---|
27
口口口口 |①---|
④口③④ |②---|
口口②口 |③---|
口口①口 |④---|
28
口口③② |①---②-|
④口口口 |③---④-|
口①①口
口口口口

口口口口
口⑤口口
口口⑦⑥ |⑤---⑥-|
⑧口口口 |⑦---⑧-|
29
⑧口口口 |①---②-|
口口⑦⑥ |③---④-|
④⑤口口 |⑤---⑥-|
口①③② |⑦---⑧-|
30
口口②① |----①-|
③④口口 |②---③-|
口口⑥⑤ |④---⑤-|
⑦口口口 |⑥---⑦-|
31
⑧口口口 |①---②-|
口口⑦⑥ |③---④-|
④⑤口口 |⑤---⑥-|
口①③② |⑦---⑧-|
32
④口口口 |----①-|
口③口口 |②---③-|
口口②① |④---|
口口口口 |----|
33
口口口④ |----①-|
口口③口 |②---③-|
①②口口 |④---|
口口口口 |----|
34
口①②口 |----①-|
④口口⑥ |②---③-|
口⑤③口 |④---⑤-|
口口⑦口 |⑥---⑦-|
35
⑥⑥⑥⑥ |①---②-|
口①③④ |③---④-|
⑤口口口 |⑤---|
口②口口 |⑥---|
36
口口④④ |①---|
口口③③ |②---|
②②口口 |③---|
①①口口 |④---|
37
①口口口 |①---|
④②口④ |②---|
口口③口 |③---|
口口口口 |④---|
38
④④口口 |①---|
③③口口 |②---|
口口②② |③---|
口口①① |④---|
39
口口口① |①---|
④口②④ |②---|
口③口口 |③---|
口口口口 |④---|
40
①口口口 |①---|
口②口口 |②---|
口口③口 |③---|
口口口④ |④---|
41
口口口① |①---|
口口②口 |②---|
口③口口 |③---|
④口口口 |④---|
42
④④口口 |①---|
口口②② |②---|
③③口口 |③---|
口口①① |④---|
43
口口口口 |①---|
口口①① |②---|
②②口口
口口口口

口口口口
④口口④
口口口口 |③---|
口③③口 |④---|
44
①口口③ |①---|
口②④口 |②---|
口口口口 |③---|
口口口口 |④---|
45
口口口口 |①---|
口口口口 |②---|
口②口口
口①口口

口口口口
③口口③
口④④口 |③---|
口口口口 |④---|
46
②口口④ |①---|
①口口③ |②---|
口口口口 |③---|
口口口口 |④---|
47
口③③口 |①---|
口③③口 |②---|
①口口② |③---|
口口口口 |----|
48
口口口口 |①---|
口口口① |----|
口口②口 |②---|
口口口口 |----|
49
口口口口 |①---|
①口口口 |----|
口②口口 |②---|
口口口口 |----|
50
口口口口 |①---|
口口口口 |②---|
④口口③ |③---|
②口口① |④---|
51
③②②③ |①---|
口①①口 |②---|
口④④口 |③---|
口口口口 |④---|
52
口口①① |①---|
口口口口 |----|
口口口口
口口口口

口②③口
口口口口
②口口③ |②---|
口口口口 |③---|
53
口口口口 |①---|
口口口口 |②---|
口②②口
口①①口

③③③③
口口口口
口④④口 |③---|
口口口口 |④---|
54
①口口口 |①---②-|
④⑤③② |③---④-|
⑧口⑦⑥ |⑤---⑥-|
口口口口 |⑦---⑧-|
55
口口口口 |①---②-|
口⑥⑥口 |③---④-|
口①口口 |⑤---|
④⑤③② |⑥---|
56
①①口口 |①---|
口口口口 |②---|
口②②口
口口口口

口④③口
口口口口
③口口④ |③---|
口口口口 |④---|
57
口口口口 |①---|
口①①口 |②---|
口口口口
口②②口

③口口③
口④④口
④口口④ |③---|
口口口口 |④---|

不確定度: 0

最終更新:2017年07月30日 19:23