倉野川音頭
日向美ビタースイーツ♪&ひなちくん

EXTREME

Level: 7
BPM: 113
Notes: 512

1
口口口口 |------|
口口口口 |------|
口口口口 |------|
口口口口 |------|
2
②②口口 |①-----|
口口口口 |②-----|
口口口口
①①口口

⑥⑥口口
口口⑤口
口口口④ |③---④⑤|
口③③⑦ |⑥---⑦-|
3
口口口口 |①---②-|
③口口① |③---④-|
口口口口
②口④口

口口⑥⑥
口口⑤⑥
⑥⑦口口 |⑤-----|
⑥⑥口口 |⑥---⑦-|
4
口口②② |①-----|
口口口口 |②-----|
口口口口
口口①①

口口⑥⑥
口⑤口口
④口口口 |③---④⑤|
⑦③③口 |⑥---⑦-|
5
口口口口 |①---②-|
①口口③ |③---④-|
口口口口
口④口②

⑥⑥口口
⑥⑤口口
口口⑦⑥ |⑤-----|
口口⑥⑥ |⑥---⑦-|
6
口口口口 |①---②-|
口口口① |③---④-|
③口口④
口②口口

口⑦口口
⑥口⑤⑧
口口口口 |⑤---⑥-|
口口口口 |⑦---⑧-|
7
口口口口 |①---②-|
口口口④ |③---④-|
②口①口
口③口口

口口⑤⑥
口口口口
口口⑦口 |⑤-----|
口口口口 |⑥---⑦-|
8
口口口口 |①-----|
①①口口 |②---③-|
口口③②
口口②口

口⑥口口
⑥⑤④口
口④口⑦ |④---⑤-|
口口口口 |⑥---⑦-|
9
口口口口 |①---②-|
口③④口 |③---④-|
①②③口
口①口口

口口⑤口
口口口⑤
⑥⑥⑥⑥ |⑤-----|
口口口口 |⑥-----|
10
口①④口 |①-----|
⑥口口③ |②---③-|
口口口口 |④-----|
口⑤②口 |⑤---⑥-|
11
口①口口 |①---②-|
口口口② |③---④-|
④口③口
口口口口

口口⑦口
口口口口
⑧⑧口⑥ |⑤---⑥-|
口⑤口口 |⑦---⑧-|
12
口口口⑤ |----①-|
口④口口 |②---③-|
口③②口 |④-----|
口口①口 |⑤-----|
13
①③②口 |①---②-|
③⑦口② |③---④-|
⑤口⑥④ |⑤-----|
口⑤④口 |⑥---⑦-|
14
口①口口 |①-----|
口口口② |----②-|
口口口口
口口口口

口口口口
口④口⑥
③口⑤口 |③---④-|
口口口口 |⑤---⑥-|
15
口口口口 |①---②-|
口口口口 |③-----|
口口口①
②②③③

⑥④④口
口口口口
口⑤口口 |④---⑤-|
口口⑦⑦ |⑥---⑦-|
16
口①⑦口 |①---②-|
口⑧⑥② |③---④-|
口⑤口③ |⑤---⑥-|
口④口口 |⑦---⑧-|
17
口口口口 |①---②-|
③口口① |③---④-|
口口口口
口④②口

⑥⑥口口
口口口⑤
口口⑦口 |⑤-----|
口口口口 |⑥---⑦-|
18
②口口① |①-----|
②②口口 |②-----|
口口口口
口口口口

口口口④
口口④④
口口口口 |③-----|
③③口口 |④-----|
19
口①②口 |①-----|
①口口② |②-----|
②口口①
口②①口

③④④③
口③③口
口口口口 |③-----|
口口口口 |④-----|
20
口⑧口⑦ |①---②-|
⑤口口⑥ |③---④-|
④口口③ |⑤---⑥-|
①口口② |⑦---⑧-|
21
口口⑥⑥ |①---②-|
⑦①②口 |③---④-|
口④③口 |⑤---⑥-|
口⑤⑧⑧ |⑦---⑧-|
22
口口口口 |----①②|
口①②④ |③---④-|
⑥③口⑤ |⑤---⑥-|
⑦口⑧口 |⑦---⑧-|
23
⑥⑥⑤口 |①---②-|
口③④⑦ |③---④-|
口②①口 |⑤---⑥-|
⑧⑧口口 |⑦---⑧-|
24
口④口口 |----①-|
口口口口 |②---③-|
③口口② |④-----|
口口口① |------|
25
口口④口 |----①-|
口口口口 |②---③-|
②口口③ |④-----|
①口口口 |------|
26
①口口⑦ |----①-|
⑤口口③ |②---③-|
口口②口 |④---⑤-|
口④⑥口 |⑥---⑦-|
27
②口口口 |①---②-|
口口口④ |③---④-|
口①③口
口口口口

⑦口口口
口口口口
口⑥口口 |⑤---⑥-|
口⑤⑧⑧ |⑦---⑧-|
28
口口口① |----①-|
口③口② |②---③-|
口④口⑤ |④---⑤-|
⑦口口⑥ |⑥---⑦-|
29
⑤口⑥⑥ |①---②-|
④⑦③口 |③---④-|
①口②口 |⑤---⑥-|
口口⑧⑧ |⑦---⑧-|
30
①口口口 |----①-|
②口③口 |②---③-|
⑤口④口 |④---⑤-|
⑥口口⑦ |⑥---⑦-|
31
⑥⑥口⑤ |①---②-|
口③⑦④ |③---④-|
口②口① |⑤---⑥-|
⑧⑧口口 |⑦---⑧-|
32
④口口口 |----①-|
口口口② |②---③-|
口③口口 |④-----|
口口①口 |------|
33
口④②口 |----①-|
口口口口 |②---③-|
①口口③ |④-----|
口口口口 |------|
34
②②口口 |----①-|
口③口口 |②---③-|
口口①口
口口口口

口口⑥⑥
口口口口
口⑤⑦口 |④---⑤-|
口口④口 |⑥---⑦-|
35
口口口口 |①---②-|
口口口口 |③---④-|
口③口口
④①口②

⑥⑥口口
口⑥⑥⑥
口⑥⑤⑥ |⑤-----|
口口口口 |⑥-----|
36
口口②② |①-----|
口口口口 |②-----|
口口口口
口口①①

口口⑥⑥
口⑤口口
④口口口 |③---④⑤|
⑦③③口 |⑥---⑦-|
37
口口口口 |①---②-|
①口口③ |③---④-|
口口口口
口④口②

⑥⑥口口
⑥⑤口口
口口⑦⑥ |⑤-----|
口口⑥⑥ |⑥---⑦-|
38
②②口口 |①-----|
口口口口 |②-----|
口口口口
①①口口

⑥⑥口口
口口⑤口
口口口④ |③---④⑤|
口③③⑦ |⑥---⑦-|
39
口口口口 |①---②-|
③口口① |③---④-|
口口口口
②口④口

口口⑥⑥
口口⑤⑥
⑥⑦口口 |⑤-----|
⑥⑥口口 |⑥---⑦-|
40
口口口口 |①---②-|
①口口口 |③---④-|
④口口③
口口②口

口口⑦口
⑧⑤口⑥
口口口口 |⑤---⑥-|
口口口口 |⑦---⑧-|
41
口口口口 |①---②-|
④口口口 |③---④-|
口①口②
口口③口

⑥⑤口口
口口口口
口⑦口口 |⑤-----|
口口口口 |⑥---⑦-|
42
口口口口 |①-----|
口口①① |②---③-|
②③口口
口②口口

口口⑥口
口④⑤⑥
⑦口④口 |④---⑤-|
口口口口 |⑥---⑦-|
43
口口口口 |①---②-|
口④③口 |③---④-|
口③②①
口口①口

口⑤口口
⑤口口口
⑥⑥⑥⑥ |⑤-----|
口口口口 |⑥-----|
44
口①④口 |①-----|
⑥口口③ |②---③-|
口口口口 |④-----|
口⑤②口 |⑤---⑥-|
45
口①口口 |①---②-|
口口口② |③---④-|
④口③口
口口口口

口口⑦口
口口口口
⑧⑧口⑥ |⑤---⑥-|
口⑤口口 |⑦---⑧-|
46
口口口⑤ |----①-|
口④口口 |②---③-|
口③②口 |④-----|
口口①口 |⑤-----|
47
①③②口 |①---②-|
③⑦口② |③---④-|
⑤口⑥④ |⑤-----|
口⑤④口 |⑥---⑦-|
48
口①口口 |①-----|
②口⑤⑥ |----②-|
口④口③ |③---④-|
口口口口 |⑤---⑥-|
49
口口口口 |①---②-|
口口口口 |③-----|
口口口①
②②③③

⑥④④口
口口口口
口⑤口口 |④---⑤-|
口口⑦⑦ |⑥--⑦--|
50
口①⑦口 |①---②-|
口⑧⑥② |③---④-|
口⑤口③ |⑤---⑥-|
口④口口 |⑦---⑧-|
51
口口口口 |①---②-|
③口口① |③---④-|
口口口口
口④②口

⑥⑥口口
口口口⑤
口口⑦口 |⑤-----|
口口口口 |⑥---⑦-|
52
②口口① |①-----|
②②口口 |②-----|
口口口口
口口口口

口口口④
口口④④
口口口口 |③-----|
口口③③ |④-----|
53
③①②③ |①-----|
①③③② |②-----|
②④④① |③-----|
口②①口 |④-----|
54
口口口① |①---②-|
口口口口 |③---④-|
②口口口
口④③口

口口口口
口⑥口口
口口口⑤ |⑤---⑥-|
口⑧⑦口 |⑦---⑧-|
55
③⑥口① |①---②-|
⑥⑤⑤口 |③---④-|
口④②⑥ |⑤-----|
口口⑥口 |⑥-----|
56
②口①口 |①-----|
②②口① |②-----|
①口口口
口①口口

口口口④
口口④④
口口③口 |③-----|
口口口口 |④-----|
57
口①②口 |①-----|
①口口② |②-----|
②口口①
口②①口

③④④③
口④口④
④④口口 |③-----|
④④口口 |④-----|

不確定度: 0

最終更新:2017年07月30日 19:23