アンビリーバーズ
米津玄師

BASIC

Level: 2
BPM: 133
Notes: 173

1
口口口口 |----|
口口口口 |----|
口口口口 |----|
口口口口 |----|
2
口口口口 |①---|
口口口口 |②---|
口口口口 |③---|
①②③口 |----|
3
口口口口 |①---|
口口口口 |②---|
口③②① |③---|
口口口口 |----|
4
口口口口 |①---|
①②③口 |②---|
口口口口 |③---|
口口口口 |----|
5
口③②① |①---|
口口口口 |②---|
口口口口 |③---|
口口口口 |----|
6
①②③口 |①---|
口口口口 |②---|
口口口口 |③---|
口口口口 |----|
7
口口口口 |①---|
口③②① |②---|
口口口口 |③---|
口口口口 |----|
8
口口口口 |①---|
口口口口 |②---|
①②③口 |③---|
口口口口 |----|
9
口口口口 |①---|
口口口口 |②---|
口口口口 |③---|
口③②① |----|
10
口口口口 |①---|
口口口口 |----|
口口②口 |②---|
口口口① |----|
11
②口口口 |①---|
口①口口 |----|
口口口口 |②---|
口口口口 |----|
12
口口②① |①---|
口口口口 |----|
口口口口 |②---|
口口口口 |----|
13
①②口口 |①---|
口口口口 |----|
口口口口 |②---|
口口口口 |----|
14
口口口① |①---|
口口②口 |----|
口口口口 |②---|
口口口口 |----|
15
口口口口 |①---|
口口口口 |----|
口①口口 |②---|
②口口口 |----|
16
口口口口 |①---|
口口口口 |----|
口口口口 |②---|
口口②① |----|
17
口口口口 |①---|
口口口口 |----|
口口口口 |②---|
①②口口 |----|
18
口口口口 |①---|
口口口口 |----|
口口②口 |②---|
口口口① |----|
19
②口口口 |①---|
口①口口 |----|
口口口口 |②---|
口口口口 |----|
20
口口②① |①---|
口口口口 |----|
口口口口 |②---|
口口口口 |----|
21
①②口口 |①---|
口口口口 |----|
口口口口 |②---|
口口口口 |----|
22
口口口① |①---|
口口②口 |----|
口口口口 |②---|
口口口口 |----|
23
口口口口 |①---|
口口口口 |----|
口①口口 |②---|
②口口口 |----|
24
口口口口 |①---|
口口口口 |----|
口口口口 |②---|
口口②① |----|
25
口口口口 |①---|
口口口口 |----|
口口口口 |②---|
①②口口 |----|
26
口口③口 |①---|
口口②口 |②---|
口口①口 |③---|
口口口口 |----|
27
口口口口 |①---|
口①口口 |②---|
口②口口 |③---|
口③口口 |----|
28
口口口口 |①---|
口口③口 |②---|
口口②口 |③---|
口口①口 |----|
29
口①口口 |①---|
口②口口 |②---|
口③口口 |③---|
口口口口 |----|
30
口口口口 |①---|
口②②口 |----|
①口口口 |②---|
口口口口 |----|
31
口口口口 |①---|
口②②口 |----|
口口口① |②---|
口口口口 |----|
32
①口口② |①---|
口口口口 |----|
口口口口 |②---|
口口口口 |----|
33
口口口口 |①---|
①口口② |----|
口口口口 |②---|
口口口口 |----|
34
口口口口 |①---|
口口口口 |----|
口①口口 |----|
口口口口 |----|
35
口口口口 |①---|
口①口口 |----|
口口口口 |----|
口口口口 |----|
36
口①口口 |①---|
口口口口 |----|
口口口口 |----|
口口口口 |----|
37
口口口口 |①---|
③口口③ |②---|
口②②口 |③---|
口①①口 |----|
38
①口口口 |①---|
②口口口 |②---|
③口口口 |③---|
④口口口 |④---|
39
口口口④ |①---|
口口口③ |②---|
口口口② |③---|
口口口① |④---|
40
口①口口 |①---|
口②口口 |②---|
口③口口 |③---|
口④口口 |④---|
41
口口口口 |①---|
口口口口 |----|
①口口① |----|
口口口口 |----|
42
口口口④ |①---|
口口口③ |②---|
口口口② |③---|
口口口① |④---|
43
①口口口 |①---|
②口口口 |②---|
③口口口 |③---|
④口口口 |④---|
44
口④口口 |①---|
口③口口 |②---|
口②口口 |③---|
口①口口 |④---|
45
①②口① |①---|
口③口口 |----|
口口口口 |②---|
口口口口 |③---|
46
口口②口 |①---|
口口③口 |----|
口①口口 |②---|
口口口口 |③---|
47
口口口口 |①---|
口口口口 |----|
口③①口 |②---|
口②口口 |③---|
48
口口口口 |①---|
口①口口 |----|
口口③口 |②---|
口口②口 |③---|
49
口口口口 |①---|
口口①口 |----|
口②②口 |②---|
口口口口 |----|
50
①②③④ |①---|
口口口口 |②---|
口口口口 |③---|
口口口口 |④---|
51
口口口口 |①---|
④③②① |②---|
口口口口 |③---|
口口口口 |④---|
52
口口口口 |①---|
口口口口 |----|
口①①口 |----|
口口口口 |----|
53
口口口口 |①---|
④④④④ |②---|
①③③① |③---|
口②②口 |④---|
54
①②③口 |①---|
口口口口 |②---|
口口口口 |③---|
口口口口 |----|
55
口口口口 |①---|
口③②① |②---|
口口口口 |③---|
口口口口 |----|
56
口口口口 |①---|
口口口口 |②---|
①②③口 |③---|
口口口口 |----|
57
口口口口 |①---|
口口口口 |②---|
口口口口 |③---|
口③②① |----|
58
口口口口 |①---|
口口口口 |②---|
口口口口 |③---|
①②③口 |----|
59
口口口口 |①---|
口口口口 |②---|
口③②① |③---|
口口口口 |----|
60
口口口口 |①---|
①②③口 |②---|
口口口口 |③---|
口口口口 |----|
61
口③②① |①---|
口口口口 |②---|
口口口口 |③---|
口口口口 |----|

不確定度: 0

最終更新:2017年07月30日 19:21