アンビリーバーズ
米津玄師

ADVANCED

Level: 6
BPM: 133
Notes: 331

1
口①①口 |----|
口口口口 |----|
口口口口 |----|
口口口口 |①---|
2
①口口口 |①---|
⑤口②口 |②---|
④口口口 |③-④-|
③口口口 |⑤---|
3
口口口① |①---|
口②口⑤ |②---|
口口口④ |③-④-|
口口口③ |⑤---|
4
①口口口 |①---|
⑤口②口 |②---|
④口口口 |③-④-|
③口口口 |⑤---|
5
口口⑥① |①---|
口②⑤口 |②---|
口口④口 |③-④-|
口口③口 |⑤-⑥-|
6
口口口① |①---|
口②口⑤ |②---|
口口口④ |③-④-|
口口口③ |⑤---|
7
①口口口 |①---|
⑤口②口 |②---|
④口口口 |③-④-|
③口口口 |⑤---|
8
口口口① |①---|
口②口⑤ |②---|
口口口④ |③-④-|
口口口③ |⑤---|
9
①⑥口口 |①---|
口⑤②口 |②---|
口④口口 |③-④-|
口③口口 |⑤-⑥-|
10
④⑤口口 |----|
口口口口 |①-②-|
口③②① |③-④-|
口口口口 |⑤---|
11
口口口口 |①--②|
口口口① |--③-|
口口口②
口口口③

口⑤口口
口口口④
口口口口 |----|
口口口口 |④-⑤-|
12
口口⑤口 |①--②|
④口①口 |--③-|
口口②口 |----|
口口③口 |④-⑤-|
13
口口口口 |①--②|
口①口口 |--③-|
口②口口 |----|
口③口口 |----|
14
口⑥⑤④ |----|
口口口口 |①-②-|
①②③口 |③-④-|
口口口口 |⑤-⑥-|
15
④口口口 |①--②|
①口⑤口 |--③-|
②口口口 |----|
③口口口 |④-⑤-|
16
口口口口 |①--②|
口①口口 |--③-|
口②口口
口③口口

口口口④
口口⑤口
口⑥口口 |--④-|
口口口口 |⑤-⑥-|
17
口口口口 |①---|
口口口口 |----|
口口口口 |----|
①口口口 |----|
18
④⑤口口 |----|
口口口口 |①-②-|
口③②① |③-④-|
口口口口 |⑤---|
19
口口⑤口 |①--②|
④口口① |--③-|
口口口② |----|
口口口③ |④-⑤-|
20
口⑤口口 |①--②|
口①口④ |--③-|
口②口口 |----|
口③口口 |④-⑤-|
21
口口口口 |①--②|
口口①口 |--③-|
口口②口 |----|
口口③口 |----|
22
口⑥⑤④ |----|
口口口口 |①-②-|
①②③口 |③-④-|
口口口口 |⑤-⑥-|
23
口⑤口口 |①--②|
①口口④ |--③-|
②口口口 |----|
③口口口 |④-⑤-|
24
口口口口 |①--②|
口口①口 |--③-|
口口②口
口口③口

④口口口
口⑤口口
口口⑥口 |--④-|
口口口口 |⑤-⑥-|
25
口口口口 |①---|
口口口口 |----|
口口③② |----|
口口口① |②-③-|
26
③口口口 |①--②|
口口②口 |--③-|
口①口口 |--④-|
④⑤⑥口 |⑤-⑥-|
27
③④⑤口 |①--②|
⑥口口② |--③-|
口①口口 |--④-|
口口口口 |⑤-⑥-|
28
口④口口 |①-②-|
口口口① |③-④-|
②口⑤③ |--⑤-|
口⑦⑥口 |⑥-⑦-|
29
口口口③ |①--②|
口口①口 |--③-|
②口口口 |--④-|
④⑤⑥口 |⑤-⑥-|
30
③⑥⑤④ |①--②|
口口口① |--③-|
口口口② |--④-|
口口口口 |⑤-⑥-|
31
口口口③ |①--②|
①口口口 |--③-|
②口口口
口口口口

口口口口
⑥口口口
口口⑤④ |--④-|
口口口口 |⑤-⑥-|
32
口口口口 |①---|
口①口口 |----|
口口口口
口口口口

口口口口
口③口口
口口口口 |②---|
口口②口 |--③-|
33
③口口① |①---|
口口②口 |--②-|
口④口口 |③---|
口口口口 |④---|
34
口口①① |①---|
②口口口 |②---|
③口口口 |③---|
④口口口 |④---|
35
口口口口 |①---|
口④口口 |②---|
口③①① |③---|
口②口口 |④---|
36
①①口口 |①---|
口口口② |②---|
口口口③ |③---|
口口口④ |④---|
37
③③③③ |①---|
口口②② |②---|
①①口口 |③---|
口口口口 |----|
38
③口口口 |①---|
口①口② |--②-|
②口①口 |----|
口口口③ |③---|
39
口②口口 |----|
③口口① |①---|
口④口口 |②-③-|
⑤口口口 |④-⑤-|
40
口口⑥⑥ |①---|
④口①① |②-③-|
口⑤③③ |--④-|
口②口口 |⑤-⑥-|
41
口①口口 |----|
口口口② |----|
口口口口 |--①-|
口③口口 |②-③-|
42
③口口④ |①---|
口①②口 |②-③-|
口②①口 |----|
④口口③ |④---|
43
口口口② |----|
①口③口 |①---|
口口口④ |②-③-|
口口⑤口 |④-⑤-|
44
③③④口 |①---|
①①口② |②-③-|
口⑤口口 |--④-|
口口⑥⑥ |⑤-⑥-|
45
①②③④ |----|
口⑤口口 |--①-|
口口⑤口 |②-③-|
口口口口 |④-⑤-|
46
口口口口 |--①-|
口⑥口① |--②-|
①口⑥口 |③-④-|
⑤④③② |⑤-⑥-|
47
口口口① |--①-|
①⑤⑥⑥ |--②-|
口口④② |③-④-|
口③口口 |⑤-⑥-|
48
⑤⑤③③ |--①-|
②口口口 |②-③-|
口口④口 |--④-|
口①口口 |⑤---|
49
口口①① |①---|
口口口口 |----|
②口口② |②---|
口口口口 |----|
50
口④口口 |----|
口口③⑤ |①-②-|
⑥②口口 |③-④-|
口口①口 |⑤-⑥-|
51
口④口口 |①-②-|
口⑥③口 |③-④-|
⑤②口⑤ |--⑤-|
口口口① |--⑥-|
52
口口口口 |①---|
②口①口 |----|
口口口③ |--②-|
④口口口 |③-④-|
53
口①①口 |--①-|
口口口口 |--②-|
口口②口
口口口口

口④④口
④③口④
口口口口 |③---|
口口口口 |④---|
54
①口口口 |①---|
⑤口②口 |②---|
④口口口 |③-④-|
③口口口 |⑤---|
55
口口口① |①---|
口②口⑤ |②---|
口口口④ |③-④-|
口口口③ |⑤---|
56
①口口口 |①---|
⑤口②口 |②---|
④口口口 |③-④-|
③口口口 |⑤---|
57
口口⑥① |①---|
口②⑤口 |②---|
口口④口 |③-④-|
口口③口 |⑤-⑥-|
58
口口口① |①---|
口②口⑤ |②---|
口口口④ |③-④-|
口口口③ |⑤---|
59
①口口口 |①---|
⑤口②口 |②---|
④口口口 |③-④-|
③口口口 |⑤---|
60
口口口① |①---|
口②口⑤ |②---|
口口口④ |③-④-|
口口口③ |⑤---|
61
①⑥⑥口 |①---|
口⑤②口 |②---|
口④口口 |③-④-|
口③口口 |⑤-⑥-|

不確定度: 0

最終更新:2017年07月30日 19:21