Synchronized Love J Rap Jam
ジョー・リノイエ

BASIC

Level: 3
BPM: 124
Notes: 162

1
口口口口 |----|
口口口口 |----|
口口口口 |----|
口口口口 |----|
2
口口口① |①---|
口口口② |----|
口口口口 |②---|
口口口口 |----|
3
口口①口 |①---|
口口②口 |----|
口口口口 |②---|
口口口口 |----|
4
口①口口 |①---|
口②口口 |----|
口口口口 |②---|
口口口口 |----|
5
①口口口 |①---|
②口口口 |----|
口口口口 |②---|
口口口口 |----|
6
④③②① |①---|
口口口口 |②---|
口口口口 |③---|
口口口口 |④---|
7
口口口口 |①---|
④③②① |②---|
口口口口 |③---|
口口口口 |④---|
8
口口口口 |①---|
口口口口 |②---|
④③②① |③---|
口口口口 |④---|
9
口①①口 |①---|
口②②口 |②---|
口③③口 |③---|
口④④口 |④---|
10
①口口口 |①---|
②口口口 |②---|
③口口口 |③---|
口口口口 |----|
11
口口口① |①---|
口口口② |②---|
口口口③ |③---|
口口口口 |----|
12
口①口口 |①---|
口②口口 |②---|
口③口口 |③---|
口口口口 |----|
13
口口①口 |①---|
口口②口 |②---|
口口③口 |③---|
口口口口 |----|
14
①口口口 |①---|
口②口口 |②---|
口口③口 |③---|
口口口口 |----|
15
口口口① |①---|
口口②口 |②---|
口③口口 |③---|
口口口口 |----|
16
口口口口 |①---|
①口口口 |②---|
口②口口 |③---|
口口③口 |----|
17
口口口口 |①---|
口口口① |②---|
口口②口 |③---|
口③口口 |----|
18
口口口① |①---|
口口口② |----|
口口口口 |②---|
口口口口 |----|
19
口口①口 |①---|
口口②口 |----|
口口口口 |②---|
口口口口 |----|
20
口①口口 |①---|
口②口口 |----|
口口口口 |②---|
口口口口 |----|
21
①口口口 |①---|
②口口口 |----|
口口口口 |②---|
口口口口 |----|
22
口口口口 |①---|
口口②① |----|
口口口口 |②---|
口口口口 |----|
23
口口口口 |①---|
②①口口 |----|
口口口口 |②---|
口口口口 |----|
24
口口口口 |①---|
口口口口 |----|
口②①口 |②---|
口口口口 |----|
25
口口①口 |①---|
口②口口 |②---|
口口③口 |③---|
口④口口 |④---|
26
口口口口 |①---|
口口口口 |----|
口口②① |②---|
口口口口 |----|
27
口口口口 |①---|
口口口口 |----|
②①口口 |②---|
口口口口 |----|
28
口②①口 |①---|
口口口口 |----|
口口口口 |②---|
口口口口 |----|
29
口口口① |①---|
口口②口 |②---|
口③口口 |③---|
④口口口 |④---|
30
口口口口 |①---|
口①①口 |----|
口口口口 |----|
口口口口 |----|
31
②口口① |①---|
口口口口 |----|
口口口口 |②---|
口口口口 |----|
32
口口口口 |①---|
口口①口 |②---|
口②口口 |③---|
口口③口 |----|
33
口口口口 |①---|
口口口口 |----|
②口口① |②---|
口口口口 |----|
34
①口口口 |①---|
②口口口 |----|
口口口口 |②---|
口口口口 |----|
35
口①口口 |①---|
口②口口 |----|
口口口口 |②---|
口口口口 |----|
36
口口①口 |①---|
口口②口 |----|
口口口口 |②---|
口口口口 |----|
37
口口口① |①---|
口口口② |----|
口口口口 |②---|
口口口口 |----|
38
口口口口 |①---|
①②③④ |②---|
口口口口 |③---|
口口口口 |④---|
39
④③②① |①---|
口口口口 |②---|
口口口口 |③---|
口口口口 |④---|
40
口口口口 |①---|
①②③④ |②---|
口口口口 |③---|
口口口口 |④---|
41
口①①口 |①---|
口②②口 |②---|
口③③口 |③---|
口④④口 |④---|
42
口口口④ |①---|
口口口口 |②---|
①②③口 |③---|
口口口口 |--④-|
43
③口口口 |----|
口口口口 |①---|
口②①口 |②---|
口口口口 |--③-|
44
口口口口 |----|
口口口③ |①---|
口①②口 |②---|
口口口口 |③---|
45
口口口③ |①---|
口口口口 |②---|
口口口① |----|
口口口② |--③-|
46
③口口口 |----|
口口口口 |①---|
口②①口 |②---|
口口口口 |--③-|
47
口口口③ |----|
口口口口 |①---|
口①②口 |②---|
口口口口 |--③-|
48
口口口口 |----|
③口口口 |①---|
口②①口 |②---|
口口口口 |③---|
49
口口口口 |①---|
口口口口 |②---|
①口口口 |----|
②口口口 |----|
50
口口口口 |①---|
②口口① |----|
②③③① |②---|
口口口口 |--③-|
51
口口①口 |----|
口②口口 |①---|
口口③口 |②---|
口口口口 |③---|
52
口口口口 |①---|
②口口① |----|
②③③① |②---|
口口口口 |--③-|
53
口①口口 |----|
口口②口 |①---|
口③口口 |②---|
口口口口 |③---|
54
口口口口 |①---|
②口口② |②---|
口口口口 |----|
口口①口 |----|

不確定度: 0

最終更新:2017年07月30日 19:20