ECO FIGHTER
入尾信充

EXTREME

Level: 8
BPM: 140
Notes: 535

1
口口口口 |----|
口口口口 |----|
口口口口 |----|
口口口口 |----|
2
口口口口 |①---|
口①①口 |----|
①①①① |----|
口口口口 |----|
3
口口口口 |----|
口口口口 |----|
口口口口 |----|
口口口口 |----|
4
口口口口 |①---|
口口口口 |----|
①①①① |----|
口①①口 |----|
5
口口口口 |----|
口口口口 |----|
④②①③ |①②--|
口口口口 |③④--|
6
口口口口 |①---|
口①①口 |----|
⑥⑧⑨⑦ |②③④⑤|
②④⑤③ |⑥⑦⑧⑨|
7
④④③③ |----|
①①②② |---①|
口口口口 |-②-③|
口口⑤口 |-④-⑤|
8
⑧口口⑧ |①②③④|
⑦⑨⑨⑦ |⑤⑥-⑦|
③⑤⑥④ |-⑧-⑨|
①口口② |----|
9
⑦口口口 |①②③④|
⑦口口口 |⑤⑥-⑦|
⑤口口⑥
①③④②

口⑧⑨⑩
口⑧⑨⑩
口口口口 |-⑧-⑨|
口口⑪口 |-⑩-⑪|
10
口⑨⑧⑦ |①②③④|
口⑨⑧⑦ |⑤⑥-⑦|
③⑤⑥④ |-⑧-⑨|
①口口② |----|
11
①③③① |--①-|
②口口② |②---|
口④④口 |③-④-|
⑤⑥⑦口 |⑤⑥⑦-|
12
①③④② |-①②③|
口⑤⑥口 |④⑤⑥⑦|
⑦口口口 |-⑧⑨⑩|
口⑧⑨⑩ |----|
13
口口口口 |--①-|
①②口口 |②--③|
口口口口
口③口口

口口口口
口⑪口口
⑨⑦⑧⑩ |④⑤⑥⑦|
⑤口④⑥ |⑧⑨⑩⑪|
14
①②③④ |-①②③|
口口⑤⑥ |④⑤⑥⑦|
口口⑦⑧ |⑧⑨⑩⑪|
口⑨⑩⑪ |----|
15
①②口口 |-①②③|
③④口口 |④---|
⑨⑩口口 |-⑤⑥⑦|
⑤⑥⑦⑧ |⑧⑨⑩-|
16
⑤口⑥口 |①②③④|
①②③④ |⑤-⑥-|
口⑦⑧⑨ |⑦⑧⑨-|
口口口口 |----|
17
②②口口 |--①-|
①①口口 |②---|
③⑥口⑦ |③-④⑤|
口④⑤口 |⑥-⑦-|
18
②③④⑤ |①--②③④|
口口口① |⑤--⑥⑦⑧|
⑥⑦⑧口
口口口口

口口口口
⑪⑪⑪⑪
口口口⑨ |⑨-⑩-|
口⑩⑩口 |⑪---|
19
口口口口 |--①-|
口口口口 |②-③-|
①②③口
口口口口

⑤⑤⑤⑤
口口口口
⑥⑥口④ |④-⑤-|
口口口口 |--⑥-|
20
口口口口 |①---|
①①口口 |--②-|
口口口口 |----|
②②②② |----|
21
④⑤⑥口 |--①-|
口口⑦⑦ |②-③-|
①口③② |④⑤⑥-|
口口口口 |--⑦-|
22
口口口口 |①---|
口口口口 |--②-|
①①口口 |----|
②②②② |----|
23
②口口② |--①-|
①口口① |②---|
⑥口④口 |③-④-|
⑦口⑤③ |⑤-⑥⑦|
24
③④⑤⑥ |--①-|
①⑦口② |②-③④|
口口⑧⑧ |⑤⑥⑦⑧|
口口口口 |----|
25
⑥⑥⑦⑦ |--①-|
③④⑤口 |②---|
口口口口 |③④⑤-|
①①②② |⑥-⑦-|
26
口口口口 |--①-|
③口口口 |②---|
④②⑤⑥ |③--④|
口①口口 |-⑤⑥-|
27
口①②① |①---|
②①②① |--②-|
②口口口 |----|
口口口口 |----|
28
口②口口 |①---|
口②口② |--②-|
①口①② |----|
①口①口 |----|
29
①①④④ |①---|
②②③③ |--②-|
③③②② |----|
④④①① |③-④-|
30
口口口口 |----|
口口口口 |----|
口口口口 |----|
口口口口 |----|
31
口口口口 |--①②|
口⑦⑧⑨ |③④⑤⑥|
口口⑥⑤ |-⑦⑧⑨|
②④③① |----|
32
③③③③ |①---|
口③③口 |--②-|
①①②② |----|
口①②口 |--③-|
33
口口口口 |--①-|
口⑦⑧口 |②③④⑤|
口④⑤⑥ |⑥-⑦⑧|
①口②③ |----|
34
①①①① |①---|
②②②② |--②-|
口③③口 |----|
口口口口 |--③-|
35
⑤⑤⑤⑤ |--①-|
④③③④ |②-③-|
①口口① |④-⑤-|
口②②口 |----|
36
口口口口 |①---|
③③③③ |--②-|
②②②② |----|
①①①① |--③-|
37
口口口口 |-①②③|
⑩⑨口口 |④⑤⑥⑦|
⑦⑤⑥⑧ |⑧-⑨⑩|
③①②④ |----|
38
口③③口 |①---|
③②②③ |--②-|
②①①② |----|
口口口口 |--③-|
39
①口口① |--①-|
口③③口 |②-③-|
②④④② |④-⑤-|
口⑤⑤口 |----|
40
口口口口 |①---|
④口口④ |②-③-|
④②③④ |----|
①③②① |④---|
41
②口口② |①---|
口①①口 |--②-|
口口口口
口口口口

口④④口
口③③口
口口口口 |--③-|
口口口口 |④---|
42
口口口口 |①---|
⑤⑤口口 |②-③-|
④③②① |--④-|
④③②① |--⑤-|
43
①②③③ |--①-|
⑤口④④ |②-③-|
口口口口 |--④-|
口口口口 |--⑤-|
44
口口口口 |①---|
口口口④ |②-③-|
①②③④ |--④-|
口③②口 |----|
45
④④口口 |①---|
③②①口 |②-③-|
③②①口 |--④-|
口口口口 |----|
46
口口口口 |①---|
口①①口 |②-③-|
口②③口
口③②口

④⑤口口
口口⑤④
口口口口 |--④-|
口口口口 |--⑤-|
47
口口①口 |①---|
口①口口 |----|
②②②② |--②-|
口②②口 |----|
48
①口口① |①---|
①①①① |----|
口口口口 |----|
口口口口 |----|
49
口口口口 |----|
口口口口 |----|
口口口口 |----|
口口口口 |----|
50
⑩⑩⑨⑨ |①②③④|
⑦⑦⑧⑧ |⑤⑥-⑦|
③⑤⑥④ |-⑧-⑨|
①口⑪② |-⑩-⑪|
51
⑧口口⑧ |①②③④|
⑦⑨⑨⑦ |⑤⑥-⑦|
③⑤⑥④ |-⑧-⑨|
①口口② |----|
52
⑦⑧⑨⑩ |①②③④|
⑦⑧⑨⑩ |⑤⑥-⑦|
③⑤⑥④ |-⑧-⑨|
①口⑪② |-⑩-⑪|
53
口⑨⑧⑦ |①②③④|
口⑨⑧⑦ |⑤⑥-⑦|
③⑤⑥④ |-⑧-⑨|
①口口② |----|
54
⑦⑨⑨⑦ |①②③④|
⑧⑩⑩⑧ |⑤⑥-⑦|
③⑤⑥④ |-⑧-⑨|
①口⑪② |-⑩-⑪|
55
⑨⑨⑨⑨ |①②③④|
⑦⑨⑨⑧ |⑤⑥-⑦|
③⑤⑥④ |-⑧-⑨|
①口口② |----|
56
⑦口口⑧ |----|
⑤口口⑥ |----|
③口口④ |①②③④|
①口口② |⑤⑥⑦⑧|
57
口①②口 |①②-③|
口口口口 |----|
⑥③③⑥ |④⑤-⑥|
⑤④④⑤ |----|
58
③③③③ |①②-③|
②③③② |----|
口①①口 |----|
口口口口 |----|


不确定度: 0

最終更新:2012年11月11日 16:28