Synchronized Love J Rap Jam
ジョー・リノイエ

ADVANCED

Level: 5
BPM: 124
Notes: 317

1
口口口口 |----|
口口口口 |----|
口口口口 |----|
口口口口 |----|
2
④③②① |①---|
口口口口 |②---|
口口口口 |③---|
口口口口 |④---|
3
口口口口 |①---|
④③②① |②---|
口口口口 |③---|
口口口口 |④---|
4
口口口口 |①---|
口口口口 |②---|
④③②① |③---|
口口口口 |④---|
5
口口口口 |①---|
口口口口 |②---|
口口口口 |③---|
④③②① |④---|
6
②口口① |①-②-|
口④③口 |③-④-|
口口口口
口口口口

⑧⑥⑤⑦
口口口口
口口口口 |⑤-⑥-|
口口口口 |⑦-⑧-|
7
口口口口 |①-②-|
口口口口 |③-④-|
②口口①
口④③口

口口口口
口口口口
⑧⑥⑤⑦ |⑤-⑥-|
口口口口 |⑦-⑧-|
8
口口口口 |①-②-|
②口口① |③-④-|
口④③口
口口口口

口口口口
⑧⑥⑤⑦
口口口口 |⑤-⑥-|
口口口口 |⑦-⑧-|
9
口①①口 |①---|
⑤②②④ |②---|
⑤③③④ |③-④-|
口口口口 |⑤---|
10
口口口① |①---|
口口②口 |②---|
口③口口 |③---|
④口口口 |④---|
11
①口口口 |①---|
口②口口 |②---|
口口③口 |③---|
口口口④ |④---|
12
口口①口 |①---|
口②口口 |②---|
口④③④ |③---|
口口口口 |④---|
13
口①口口 |①---|
口口②口 |②---|
④③④口 |③---|
口口口口 |④---|
14
口口口① |①---|
口口②口 |②---|
口③口口 |③---|
④口口口 |④---|
15
①口口口 |①---|
口②口口 |②---|
口口③口 |③---|
口口口④ |④---|
16
②口口① |①---|
口口口口 |②---|
口④③口 |③---|
口口口口 |④---|
17
口②①口 |①---|
③口口③ |②---|
④口口④ |③-④-|
⑤口口⑤ |⑤---|
18
口③②① |---①--|
④口口口 |②--③--|
口⑤口口 |④----⑤|
口口⑥口 |---⑥--|
19
口口口口 |----|
口口口口 |----|
口口口口 |----|
口口口口 |----|
20
①②③口 |---①--|
口口口④ |②--③--|
口口⑤口 |④----⑤|
口⑥口口 |---⑥--|
21
口口口口 |----|
口口①口 |----|
口②口口 |--①-|
口口③口 |②-③-|
22
口口口口 |----|
①口口口 |----|
口②③口 |--①-|
口口口口 |②-③-|
23
⑤②③⑤ |①---|
口④④① |②-③-|
口口口口 |--④-|
口口口口 |--⑤-|
24
口口口口 |--①-|
口口口口 |②---|
①口口① |----|
②口口② |----|
25
④口口③ |①---|
④口口③ |②---|
②口口① |③---|
口②①口 |④---|
26
口③②① |---①--|
④口口口 |②--③--|
口⑤口口 |④----⑤|
口口⑥口 |---⑥--|
27
口口口口 |----|
口口口口 |----|
口口口口 |----|
口口口口 |----|
28
①②③口 |---①--|
口⑥口④ |②--③--|
口口⑤口 |④----⑤|
口口口口 |---⑥--|
29
口口口口 |---①--|
②口口① |②--③--|
④⑦⑦③ |④--⑤--|
⑥口口⑤ |⑥----⑦|
30
口①①口 |----|
口口口口 |----|
口口口口 |----|
口口口口 |--①-|
31
口口口口 |①----②|
④口口① |---③--|
口⑤②口 |④----⑤|
口③⑥口 |---⑥--|
32
口口口口 |①---|
口①①口 |②-③-|
②口口② |----|
③口口③ |----|
33
④口口③ |①---|
④口口③ |②---|
②口口① |③---|
口②①口 |④---|
34
口口口② |①-----|
口①①口 |---②--|
口①①口
口口口口

⑤口口口
口口口③
口④口口 |③----④|
口口口口 |---⑤--|
35
口口口口 |--①-|
口①口口 |--②-|
口口②口 |--③-|
口口口③ |----|
36
①口口④ |------|
②口口口 |---①--|
口口③口 |②----③|
口口口口 |---④--|
37
口口口口 |--①-|
口口①口 |--②-|
口②口口 |----|
口③③口 |③---|
38
口①①口 |①---|
口口⑤② |②-③-|
口④口③ |--④-|
口口口口 |⑤---|
39
口①①口 |①---|
②⑤口口 |②-③-|
③口④口 |--④-|
口口口口 |⑤---|
40
口①①口 |①---|
②口口② |②-③-|
③⑤⑤③ |--④-|
口④④口 |⑤---|
41
①①①① |①---|
②②②② |②---|
③③③③ |③---|
④④④④ |④---|
42
⑥口口⑥ |①-②-|
①②③口 |③-④-|
口⑤④⑤ |⑤---|
口口口口 |--⑥-|
43
⑤口口⑤ |--①-|
口②①口 |②-③-|
④③④口 |④---|
口口口口 |--⑤-|
44
口口口口 |--①-|
口①②③ |②-③-|
口⑦口④ |④-⑤-|
口口⑥⑤ |⑥-⑦-|
45
④口口④ |①-②-|
①口口口 |③---|
②口口口 |----|
③口口口 |--④-|
46
⑤口口⑤ |--①-|
口②①口 |②-③-|
④③④口 |④---|
口口口口 |--⑤-|
47
⑤口口⑤ |--①-|
口①②口 |②-③-|
口④③④ |④---|
口口口口 |--⑤-|
48
口口口口 |--①-|
③②①口 |②-③-|
④口⑦口 |④-⑤-|
⑤⑥口口 |⑥-⑦-|
49
口口口口 |①-②-|
口口口① |③---|
口口口② |----|
口口口③ |----|
50
口①①口 |①---|
①③③① |----|
②③③② |②---|
口②②口 |--③-|
51
④口口① |--①-|
口④口② |②-③-|
⑤口口③ |④---|
口⑤口口 |⑤---|
52
口①①口 |①---|
①③③① |----|
②③③② |②---|
口②②口 |--③-|
53
①口⑤口 |--①-|
②④口⑥ |②-③-|
③口⑦口 |④-⑤-|
口口口口 |⑥-⑦-|
54
①口口① |----|
口口口口 |①-②-|
②口口② |----|
口口口口 |----|

不確定度: 0

最終更新:2017年07月30日 19:20