Synchronized Love J Rap Jam
ジョー・リノイエ

EXTREME

Level: 8
BPM: 124
Notes: 527

1
口口口口 |----|
口口口口 |----|
口口口口 |----|
口口口口 |----|
2
④③②① |①---|
口口口② |②---|
口口口③ |③---|
口口口④ |④---|
3
④口口口 |①---|
③口口口 |②---|
②口口口 |③---|
①②③④ |④---|
4
口①①口 |①---|
②口口② |②---|
③口口③ |③---|
口④④口 |④---|
5
④口口④ |①---|
口③③口 |②---|
口②②口 |③---|
①口口① |④---|
6
⑨口口⑨ |①--②--|
①⑥⑦④ |③--④-⑤|
口②口⑤ |--⑥⑦--|
⑧口③⑧ |⑧--⑨--|
7
⑨口口⑨ |①--②--|
④⑦⑥① |③--④-⑤|
⑤口②口 |--⑥⑦--|
⑧③口⑧ |⑧--⑨--|
8
⑨口口⑨ |①--②--|
①⑥⑦④ |③--④-⑤|
口②口⑤ |--⑥⑦--|
⑧口③⑧ |⑧--⑨--|
9
口口口口 |①--②-③|
①②③① |④--⑤-⑥|
口口口口
⑤④④⑥

⑧口⑨⑨
⑧口⑨⑨
⑧⑧⑦口 |⑦--⑧--|
口口口口 |⑨-----|
10
④①口口 |①--②--|
口②口口 |③--④-⑤|
⑤③④②
口口②④

口口口口
口口口⑥
口口口⑦ |---⑥--|
口口口口 |---⑦--|
11
口①④② |①--②--|
②口②④ |③--④--|
口③⑤⑥ |---⑤--|
④口⑥⑤ |---⑥--|
12
口口①④ |①--②--|
口口②口 |③--④-⑤|
②④③⑤
④②口口

口口口口
⑥口口口
⑦口口口 |---⑥--|
口口口口 |---⑦--|
13
②④①口 |①--②--|
④②口② |③--④--|
⑥⑤③口 |---⑤--|
⑤⑥口④ |---⑥--|
14
④①口口 |①--②--|
口②口口 |③--④-⑤|
⑤③④②
口口②④

口口口口
口口口⑥
口口口⑦ |---⑥--|
口口口口 |---⑦--|
15
口①④② |①--②--|
②口②④ |③--④--|
口③⑤⑥ |---⑤--|
④口⑥⑤ |---⑥--|
16
口口①④ |①--②--|
口口②口 |③--④-⑤|
②④③⑤
④②口口

口口口口
⑥口口口
⑦口口口 |---⑥--|
口口口口 |---⑦--|
17
②④①⑤ |①--②--|
④②②⑥ |③--④--|
口口③⑦ |⑤--⑥--|
⑤⑥⑦口 |⑦-----|
18
口口口① |---①--|
口口②口 |②--③--|
口③口口
口口口口

④口口口
④⑤⑥口
口口口口 |④----⑤|
口⑤⑥口 |---⑥--|
19
口①①口 |①-----|
口口口口 |②----③|
口③口② |---④--|
⑤口口④ |---⑤--|
20
①口口口 |---①--|
口②口口 |②--③--|
口口③口
口口口口

口口口④
口⑥⑤④
口口口口 |④----⑤|
口⑥⑤口 |---⑥--|
21
口①①口 |①-----|
口口口口 |②----③|
②口③口
口口口口

口口④口
口口⑤口
口⑥口⑥ |---④--|
口口⑥口 |⑤--⑥--|
22
口⑥⑤④ |①-----|
①口口口 |②----③|
②口口口 |---④--|
口③口口 |⑤--⑥--|
23
①口口口 |①-----|
口口口② |②--③--|
⑤⑤口③ |---④--|
④④口口 |---⑤--|
24
口口口口 |---①--|
口口口① |②----③|
口③口② |---④--|
⑤口口④ |---⑤--|
25
口口①① |①-----|
②④④口 |②----③|
口②③口 |---④--|
⑤口口⑤ |⑤-----|
26
口口口① |---①--|
口口②口 |②--③--|
口③口口
口口口口

④口口口
④⑤⑥口
口口口口 |④----⑤|
口⑤⑥口 |---⑥--|
27
口①①口 |①-----|
口口口口 |②----③|
口③口② |---④--|
⑤口口④ |---⑤--|
28
①口口⑥ |---①--|
口②⑤口 |②--③--|
口⑤③口 |④----⑤|
⑥口口④ |---⑥--|
29
②③口口 |---①--|
①口口口 |②--③--|
口口口①
口口③②

⑦口④⑤
口口口⑥
⑥口口口 |④--⑤--|
⑤④口⑦ |⑥----⑦|
30
口①①口 |------|
口口口口 |------|
口口口口 |------|
口口口口 |---①--|
31
③口口⑥ |①----②|
②③⑥⑤ |---③--|
①②⑤④ |④----⑤|
口①④口 |---⑥--|
32
口①①口 |①-----|
口口口口 |②--③--|
②口口② |------|
③口口③ |------|
33
①④④口 |①-----|
口①口② |②----③|
口口③② |---④--|
口⑤⑤口 |⑤-----|
34
④⑤③② |①-----|
口口口口 |---②--|
口口口口 |③----④|
①口口① |---⑤--|
35
口口口口 |---①--|
口①口口 |---②--|
口②口口 |---③--|
③③③口 |------|
36
口口口口 |------|
口口口口 |---①--|
口口口④ |②----③|
③口②① |---④--|
37
口口口口 |--①-|
口③④口 |--②-|
①②②口 |----|
口②②口 |③-④-|
38
①口口① |①---|
口口口③ |②-③-|
④口④② |--④-|
⑥⑤⑥⑤ |⑤-⑥-|
39
①口口① |①---|
③口口口 |②-③-|
②④口④ |--④-|
⑤⑥⑤⑥ |⑤-⑥-|
40
①口口① |①---|
口③③口 |②-③-|
④②②④ |--④-|
口⑤⑤口 |⑤---|
41
④②①① |①-②-|
②④③③ |③-④-|
⑧⑥⑤⑤ |⑤-⑥-|
⑥⑧⑦⑦ |⑦-⑧-|
42
②口①口 |①-②-|
口②口① |③-④-|
口口③口
④口口口

口⑤⑦⑤
⑥口⑤⑦
⑥⑤口⑤ |⑤---|
口口口口 |⑥-⑦-|
43
口⑥⑥口 |--①-|
④①④⑤ |②-③-|
口④②⑤ |④---|
④口④③ |⑤-⑥-|
44
②⑦⑥⑤ |--①-|
③①口④ |②-③-|
④口①③ |④-⑤-|
⑤⑥⑦② |⑥-⑦-|
45
①口口④ |①-②-|
②③③口 |③-④-|
口③③②
④口口①

⑤口口口
⑥口口口
口口口⑥ |--⑤-|
口口⑥⑤ |--⑥-|
46
③②口口 |--①-|
口口①口 |②-③-|
③②口口
口口口口

口⑤④口
⑤④口④
口口④⑤ |④---|
口口口口 |--⑤-|
47
口⑤⑤口 |--①-|
口④②③ |②-③-|
④①④口 |④---|
口④②③ |--⑤-|
48
⑤⑥⑦② |--①-|
④口①③ |②-③-|
③①口④ |④-⑤-|
②⑦⑥⑤ |⑥-⑦-|
49
④口口① |①-②-|
口③③② |③-④-|
②③③口
①口口④

口口口⑤
口口口口
口口口口 |--⑤-|
⑤口口口 |----|
50
口①②口 |①---|
①③③② |----|
②③③① |②---|
口②①口 |--③-|
51
①口口① |--①-|
②④④② |②-③-|
③⑤⑤③ |④-⑤-|
⑥口口⑥ |⑥---|
52
口②①口 |①---|
②③③① |----|
①③③② |②---|
口①②口 |--③-|
53
口③①口 |①-②-|
③⑧⑥① |③-④-|
⑤口口⑦ |⑤-⑥-|
②⑤⑦④ |⑦-⑧-|
54
①口口① |①---|
③口口口 |②-③-|
口③②口 |----|
③口口② |----|

不確定度: 0

最終更新:2017年07月30日 19:20