新宝島
サカナクション

BASIC

Level: 3
BPM: 149-158
Notes: 206

BPM: 149
1
口口口口 |----|
口口口口 |----|
口口口口 |----|
口口口口 |----|
2
口口口口 |①---|
口口口口 |----|
口①①口 |----|
口口口口 |----|
3
口口口口 |①---|
口②③口 |----|
口①①口 |②---|
口口口口 |③---|
4
口口口口 |----|
口口口口 |①---|
口①②口 |②---|
口口口口 |----|
5
口口口口 |①---|
口口口口 |----|
口②③口 |②---|
①口口① |③---|
6
口口口口 |①---|
口口②口 |----|
口口口① |②---|
口口口口 |----|
7
口①口口 |①---|
口②③口 |----|
口口口口 |②---|
口口口口 |③---|
8
口①②口 |----|
口口口口 |①---|
口口口口 |②---|
口口口口 |----|
9
口口④口 |①---|
口③口口 |②---|
口口②口 |③---|
口①口口 |④---|

BPM: 158
10
①②③④ |①---|
口口口口 |②---|
口口口口 |③---|
口口口口 |④---|
11
口口口口 |①---|
口口口① |②---|
口口口② |③---|
口口④③ |④---|
12
口口口口 |①---|
④口口口 |②---|
③口口口 |③---|
②①口口 |④---|
13
口口口口 |①---|
口①②口 |②---|
口④③口 |③---|
口口口口 |④---|
14
口口②② |①---|
口口①① |----|
口口口口 |②---|
口口口口 |----|
15
①口口口 |①---|
②口口口 |②---|
③口口口 |③---|
④口口口 |④---|
16
口口②② |①---|
口口①① |----|
口口口口 |②---|
口口口口 |----|
17
口①口口 |①---|
口②口口 |②---|
口③口口 |③---|
口④口口 |④---|
18
口口②② |①---|
口口①① |----|
口口口口 |②---|
口口口口 |----|
19
①口口口 |①---|
②口口口 |②---|
③口口口 |③---|
④口口口 |④---|
20
口口②② |①---|
口口①① |----|
口口口口 |②---|
口口口口 |----|
21
口①口口 |①---|
口②口口 |②---|
口③口口 |③---|
口④口口 |④---|
22
口口口口 |①---|
口口口口 |----|
口口①① |----|
口口口口 |----|
23
口口口口 |----|
口口口口 |----|
口②口口 |①---|
①口口口 |②---|
24
口口口口 |①---|
口口①口 |----|
口口口口 |----|
口口口口 |----|
25
口口口口 |----|
口②口口 |----|
口口①口 |①---|
口口口口 |②---|
26
①②③④ |①---|
口口口口 |②---|
口口口口 |③---|
口口口口 |④---|
27
口口口口 |①---|
口口①口 |②---|
口②口口 |③---|
③口④口 |④---|
28
口口口口 |----|
口口口口 |----|
口口口口 |----|
口口口口 |----|
29
口口口口 |----|
口口口口 |----|
口口口口 |----|
口①口口 |①---|
30
口口口口 |①---|
口口口口 |----|
口口①口 |----|
口口口口 |----|
31
口口口口 |----|
口③口口 |①---|
口口②口 |②---|
口口口① |③---|
32
①口口口 |①---|
口口口口 |----|
口口口口 |----|
口口口口 |----|
33
口口口口 |----|
口口③口 |①---|
口②口口 |②---|
①口口口 |③---|
34
④③②① |①---|
口口口口 |②---|
口口口口 |③---|
口口口口 |④---|
35
口口口口 |①---|
口①口口 |②---|
口口②口 |③---|
口④口③ |④---|
36
口口口口 |①---|
口②②口 |----|
口①①口 |②---|
口口口口 |----|
37
④口口口 |①---|
口③口口 |②---|
口口②口 |③---|
口口口① |④---|
38
口口④④ |①---|
口口③③ |②---|
口口②② |③---|
口口①① |④---|
39
④④口口 |①---|
③③口口 |②---|
②②口口 |③---|
①①口口 |④---|
40
口口口口 |----|
口口①口 |①---|
口②③口 |②---|
口口口口 |③---|
41
口口口口 |①---|
口口口口 |②---|
口口口口 |----|
口①②口 |----|
42
口口口口 |①---|
②口口① |----|
②口口① |②---|
口口口口 |----|
43
口口口口 |①---|
口口①口 |----|
口口①口 |----|
口口口口 |----|
44
口口口口 |①---|
口①口② |----|
口①口② |②---|
口口口口 |----|
45
口口口口 |①---|
口口①口 |----|
口口①口 |----|
口口口口 |----|
46
④④口口 |①---|
③③口口 |②---|
②②口口 |③---|
①①口口 |④---|
47
口口④④ |①---|
口口③③ |②---|
口口②② |③---|
口口①① |④---|
48
口口口口 |----|
口①口口 |①---|
口③②口 |②---|
口口口口 |③---|
49
口口口口 |①---|
口口口口 |②---|
口口口口 |----|
口②①口 |----|
50
口口口口 |①---|
①口②口 |----|
①口②口 |②---|
口口口口 |----|
51
口口口口 |①---|
口①口口 |----|
口①口口 |----|
口口口口 |----|
52
口口口口 |①---|
口②口① |----|
口②口① |②---|
口口口口 |----|
53
口口口口 |①---|
④口①口 |②---|
口③①口 |③---|
②口口口 |④---|
54
口口②② |①---|
口口①① |----|
口口口口 |②---|
口口口口 |----|
55
①口口口 |①---|
②口口口 |②---|
③口口口 |③---|
④口口口 |④---|
56
口口②② |①---|
口口①① |----|
口口口口 |②---|
口口口口 |----|
57
口①口口 |①---|
口②口口 |②---|
口③口口 |③---|
口④口口 |④---|
58
口口②② |①---|
口口①① |----|
口口口口 |②---|
口口口口 |----|
59
①口口口 |①---|
②口口口 |②---|
③口口口 |③---|
④口口口 |④---|
60
口口口口 |①---|
口口①① |----|
口口口口 |----|
口口口口 |----|

不確定度: 0

最終更新:2017年07月30日 19:19