新宝島
サカナクション

ADVANCED

Level: 5
BPM: 149-158
Notes: 367

BPM: 149
1
口口口口 |----|
口口口口 |----|
口口口口 |----|
口口口口 |----|
2
①口口① |①---|
口口口口 |----|
口口口口 |----|
口口口口 |----|
3
口口口口 |①---|
口②③口 |----|
口口口口 |②---|
①口口① |③---|
4
口口口口 |----|
口口口口 |①---|
口①②口 |②---|
口口口口 |----|
5
口口口口 |①---|
③口口口 |----|
口口口口 |②---|
②①①② |③---|
6
口②口口 |①---|
口口口① |----|
口口口口 |②---|
口口口口 |----|
7
口口①口 |①---|
口口口口 |----|
口②③口 |②---|
口口口口 |③---|
8
口口口口 |----|
①口口② |①---|
口口口口 |②---|
口口口口 |----|
9
口口口口 |①---|
①口口② |②---|
①③④② |③---|
口③④口 |④---|

BPM: 158
10
①口口② |①-②-|
③口口④ |③-④-|
⑤口口⑥ |⑤-⑥-|
⑦口口⑧ |⑦-⑧-|
11
口①②口 |①-②-|
口③④口 |③-④-|
口⑤⑥口 |⑤-⑥-|
口⑦⑧口 |⑦-⑧-|
12
①口口② |①-②-|
③口口④ |③-④-|
⑤口口⑥ |⑤-⑥-|
⑦口口⑧ |⑦-⑧-|
13
⑤①②口 |①-②-|
口③④⑥ |③-④-|
⑦口口口 |⑤-⑥-|
口口口⑧ |⑦-⑧-|
14
⑤②②⑤ |①---|
口④口口 |②---|
③口口③ |③---|
口①①口 |④-⑤-|
15
口口口口 |--①-|
口口①口 |--②-|
口②③口 |--③-|
④口口口 |--④-|
16
⑤②②⑤ |①---|
口④口口 |②---|
③口口③ |③---|
口①①口 |④-⑤-|
17
口口口口 |--①-|
口口①口 |--②-|
口②③口 |--③-|
④口口口 |--④-|
18
⑤②②⑤ |①---|
口④口口 |②---|
③口口③ |③---|
口①①口 |④-⑤-|
19
口口口口 |--①-|
口口①口 |--②-|
口②③口 |--③-|
④口口口 |--④-|
20
⑤②②⑤ |①---|
口④口口 |②---|
③口口③ |③---|
口①①口 |④-⑤-|
21
口口口口 |--①-|
口口①⑤ |--②-|
口②口④ |--③-|
口口口③ |④-⑤-|
22
④①①④ |----|
口③口口 |①---|
②口口② |②---|
口口口口 |③-④-|
23
口口口口 |--①-|
⑥口①⑤ |--②-|
④口口③ |③-④-|
口②口口 |⑤-⑥-|
24
④①①④ |----|
口③口口 |①---|
②口口② |②---|
口口口口 |③-④-|
25
口口口口 |--①-|
口口①口 |--②-|
⑥②口⑤ |③-④-|
④口口③ |⑤-⑥-|
26
②②①① |--①-|
④④③③ |--②-|
口口口口 |--③-|
口口口口 |--④-|
27
口口口口 |----|
口口口口 |①-②-|
口口①口 |③-④-|
②③④⑤ |⑤---|
28
④①①④ |----|
口③口口 |①---|
②口口② |②---|
口口口口 |③-④-|
29
口口口口 |--①-|
口口①⑤ |--②-|
口②口④ |--③-|
口口口③ |④-⑤-|
30
④①①④ |----|
口③口口 |①---|
②口口② |②---|
口口口口 |③-④-|
31
口口口口 |--①-|
⑥口①⑦ |②-③-|
④口口⑤ |④-⑤-|
②口口③ |⑥-⑦-|
32
④①①④ |----|
口③口口 |①---|
②口口② |②---|
口口口口 |③-④-|
33
口口口口 |--①-|
口口①口 |②-③-|
⑥口口⑦ |④-⑤-|
④②③⑤ |⑥-⑦-|
34
①①②② |--①-|
③③④④ |--②-|
口口口口 |--③-|
口口口口 |--④-|
35
④口口⑤ |----|
口③口口 |①-②-|
口口②口 |③-④-|
口口口① |⑤---|
36
口①①口 |①---|
③口口④ |②---|
③口口④ |--③-|
口②②口 |④---|
37
⑧④口口 |①-②-|
口口③⑦ |③-④-|
⑥②口口 |⑤-⑥-|
①口⑤① |⑦-⑧-|
38
口口①① |①---|
③③口口 |②---|
④④口口 |③---|
口口②② |④---|
39
②口口口 |①---|
口②口① |②---|
口口①口
口口口口

口④④③
④口③④
口口口口 |③---|
口口口口 |④---|
40
口口口口 |----|
口③④口 |①---|
①①口口 |②---|
口口②② |③-④-|
41
②口口口 |--①-|
口②口口 |----|
①口②① |----|
口口口② |②---|
42
④口口② |----|
口④②口 |①---|
口②④口 |②---|
②③①④ |③-④-|
43
口口口② |--①-|
口口②口 |----|
口②口口 |----|
②口①口 |②---|
44
口②①口 |----|
口口口口 |①-②-|
口④③口 |--③-|
口口口口 |④---|
45
口口口口 |----|
口口口口 |----|
口口口口 |----|
口口口口 |----|
46
①①口口 |①---|
口口③③ |②---|
口口④④ |③---|
②②口口 |④---|
47
口口口② |①---|
①口②口 |②---|
口①口口
口口口口

③④④口
④③口④
口口口口 |③---|
口口口口 |④---|
48
口口口口 |----|
口③④口 |①---|
①①口口 |②---|
口口②② |③-④-|
49
②口口口 |--①-|
口②口口 |----|
①口②① |----|
口口口② |②---|
50
④口口② |----|
口④②口 |①---|
口②④口 |②---|
②③①④ |③-④-|
51
口口口② |--①-|
口口②口 |----|
口②口口 |----|
②口①口 |②---|
52
口②①口 |----|
口口口口 |①-②-|
口④③口 |--③-|
口口口口 |④---|
53
④口口⑤ |----|
口⑥口③ |①-②-|
②口口口 |③-④-|
口口口① |⑤-⑥-|
54
⑤②②⑤ |①---|
口④口口 |②---|
③口口③ |③---|
口①①口 |④-⑤-|
55
口口口口 |--①-|
口口①口 |--②-|
口②③口 |--③-|
④口口口 |--④-|
56
⑤②②⑤ |①---|
口④口口 |②---|
③口口③ |③---|
口①①口 |④-⑤-|
57
口口口口 |--①-|
口口①口 |--②-|
口②③口 |--③-|
④口口口 |--④-|
58
⑤②②⑤ |①---|
口④口口 |②---|
③口口③ |③---|
口①①口 |④-⑤-|
59
口口口口 |--①-|
口口①口 |--②-|
口②③口 |--③-|
④口口口 |--④-|
60
口口口口 |①---|
口口口口 |----|
口口口口 |----|
口①①口 |----|

不確定度: 0

最終更新:2017年07月30日 19:19