SUSHI食べたい feat.ソイソース
ORANGE RANGE

BASIC

Level: 2
BPM: 135
Notes: 157

1
口口口口 |----|
口口口口 |----|
口口口口 |----|
口口口口 |----|
2
口口口口 |①---|
口口口口 |----|
口②①口 |②---|
口口口口 |----|
3
口口口口 |----|
口口口口 |----|
口口口口 |----|
口口口口 |----|
4
口口口口 |①---|
口①②口 |----|
口口口口 |②---|
口口口口 |----|
5
口口口口 |----|
口口口口 |----|
口口口口 |----|
口口口口 |----|
6
口口口口 |①---|
口口口口 |----|
口②①口 |②---|
口口口口 |----|
7
口口口口 |----|
口口口口 |----|
口口口口 |----|
口口口口 |----|
8
口口口口 |①---|
口①②口 |----|
口口口口 |②---|
口口口口 |----|
9
口口口口 |----|
口口口口 |----|
口口口口 |----|
口口口口 |----|
10
口口口口 |①---|
口口口口 |----|
口口②口 |②---|
口口口① |----|
11
口口口口 |①---|
②口口口 |----|
口①口口 |②---|
口口口口 |----|
12
①口口口 |①---|
口②口口 |----|
口口口口 |②---|
口口口口 |----|
13
口口口口 |①---|
口口①口 |----|
口口口② |②---|
口口口口 |----|
14
口口口口 |①---|
口口口① |----|
口口②口 |②---|
口口口口 |----|
15
口口口口 |①---|
口口口口 |----|
口①口口 |②---|
②口口口 |----|
16
口口口口 |①---|
口②口口 |----|
①口口口 |②---|
口口口口 |----|
17
口口口② |①---|
口口①口 |----|
口口口口 |②---|
口口口口 |----|
18
口口①口 |①---|
口口口口 |----|
口口口口 |----|
口口口口 |----|
19
口口口口 |①---|
口①口口 |----|
口口口口 |----|
口口口口 |----|
20
口口口口 |①---|
口口口口 |----|
口口①口 |----|
口口口口 |----|
21
口口口口 |①---|
口口口口 |----|
口口口口 |----|
口①①口 |----|
22
口口口口 |①---|
口口口口 |----|
②②口口 |②---|
①①口口 |----|
23
口口口口 |----|
口口口口 |----|
口口口口 |----|
口口口口 |----|
24
口口口口 |①---|
口口口口 |----|
口口②② |②---|
口口①① |----|
25
口口口口 |----|
口口口口 |----|
口口口口 |----|
口口口口 |----|
26
口口口口 |①---|
口②②口 |----|
口①①口 |②---|
口口口口 |----|
27
口口口口 |----|
口口口口 |----|
口口口口 |----|
口口口口 |----|
28
口口口口 |①---|
②口口② |----|
①口口① |②---|
口口口口 |----|
29
口口口口 |----|
口口口口 |----|
口口口口 |----|
口口口口 |----|
30
口口口口 |①---|
口口口口 |----|
口①①口 |----|
口口口口 |----|
31
口口口口 |①---|
口口口口 |----|
①口口① |----|
口口口口 |----|
32
口口口口 |①---|
口口口口 |----|
口口口口 |②---|
口②①口 |----|
33
口口口口 |①---|
口口口口 |----|
口口口口 |----|
①口口口 |----|
34
口口口口 |①---|
口口口口 |----|
口①②口 |②---|
口口口口 |----|
35
口口口口 |①---|
口口口口 |----|
口口口① |----|
口口口口 |----|
36
口口口口 |①---|
口②①口 |----|
口口口口 |②---|
口口口口 |----|
37
口口口口 |①---|
①口口口 |----|
口口口口 |----|
口口口口 |----|
38
口①②口 |①---|
口口口口 |----|
口口口口 |②---|
口口口口 |----|
39
口口口口 |①---|
口①②口 |----|
口口口口 |②---|
口口口口 |----|
40
口口口口 |①---|
口口口口 |----|
③②口① |②---|
口口口口 |③---|
41
口口口口 |①---|
①口②③ |----|
口口口口 |②---|
口口口口 |③---|
42
③②口① |①---|
口口口口 |----|
口口口口 |②---|
口口口口 |③---|
43
口口口口 |①---|
①口②③ |----|
口口口口 |②---|
口口口口 |③---|
44
口口口口 |①---|
口口口口 |----|
③②口① |②---|
口口口口 |③---|
45
口口口口 |①---|
口口口口 |----|
口口口口 |②---|
①口②③ |③---|
46
口口口口 |①---|
口口口口 |----|
③②口① |②---|
口口口口 |③---|
47
口口口口 |①---|
①口②③ |----|
口口口口 |②---|
口口口口 |③---|
48
口口口口 |①---|
口口②口 |----|
①①口口 |----|
口口口口 |②---|
49
口口口口 |①---|
口②口口 |----|
口①①口 |----|
口口口口 |②---|
50
口口口口 |①---|
口口②口 |----|
口口①① |----|
口口口口 |②---|
51
口口口口 |①---|
口口口口 |②---|
口①①口 |----|
口②②口 |----|
52
口口口口 |①---|
③③口口 |②---|
②②口口 |③---|
①①口口 |----|
53
口口①口 |①---|
口②口口 |②---|
口口③口 |③---|
口④口口 |④---|
54
口口口口 |①---|
口口③③ |②---|
口口②② |③---|
口口①① |----|
55
口①口口 |①---|
口口②口 |②---|
口③口口 |③---|
口口④口 |④---|
56
口口口口 |①---|
③③口口 |②---|
②②口口 |③---|
①①口口 |----|
57
口口①口 |①---|
口②口口 |②---|
口口③口 |③---|
口④口口 |④---|
58
口口口口 |①---|
口口③③ |②---|
口口②② |③---|
口口①① |----|
59
口①①口 |①---|
口②②口 |②---|
口③③口 |③---|
口④④口 |④---|
60
口口口口 |①---|
口口口② |----|
口口口① |②---|
口口口口 |----|
61
口口口① |①---|
口口②口 |----|
口口口口 |②---|
口口口口 |----|
62
口口口口 |①---|
口口口口 |----|
口①①口 |----|
口口口口 |----|
63
口口口口 |①---|
口口①口 |----|
口②口口 |②---|
口口口口 |----|
64
口口口口 |①---|
②口口口 |----|
①口口口 |②---|
口口口口 |----|
65
①口口口 |①---|
口②口口 |----|
口口口口 |②---|
口口口口 |----|
66
口口口口 |①---|
口口口口 |----|
口①①口 |----|
口口口口 |----|

不確定度: 0

最終更新:2017年07月30日 19:17