SUSHI食べたい feat.ソイソース
ORANGE RANGE

ADVANCED

Level: 5
BPM: 135
Notes: 282

1
口口口口 |----|
口口口口 |----|
口口口口 |----|
口口口口 |----|
2
口口③口 |①---|
口口②口 |②---|
口口①口 |③---|
口口口口 |----|
3
口口口口 |----|
口口口口 |----|
口口口口 |----|
口口口口 |----|
4
口③口口 |①---|
口②口口 |②---|
口①口口 |③---|
口口口口 |----|
5
口口口口 |----|
口口口口 |----|
口口口口 |----|
口口口口 |----|
6
口口口③ |①---|
口口口② |②---|
口口口① |③---|
口口口口 |----|
7
口口口口 |----|
口口口口 |----|
口口口口 |----|
口口口口 |----|
8
③口口口 |①---|
②口口口 |②---|
①口口口 |③---|
口口口口 |----|
9
口口口口 |----|
口口口口 |----|
口口口口 |----|
口口口口 |----|
10
口口口口 |①---|
口口口① |②---|
口口②口 |③---|
口③口口 |----|
11
口口口口 |①---|
①口口口 |②---|
口②口口 |③---|
口口③口 |----|
12
口口口口 |①---|
口口③口 |②---|
口②口口 |③---|
①口口口 |----|
13
口口口口 |①---|
口③口口 |②---|
④口②④ |③---|
口口口① |④---|
14
口口口口 |①---|
口口①口 |②---|
口②口口 |③---|
③口口口 |----|
15
口口口口 |①---|
口①口口 |②---|
口口②口 |③---|
口④④③ |④---|
16
口口口口 |①---|
②④③① |②---|
①口口② |③---|
口③④口 |④---|
17
③④④③ |①---|
②口口② |②---|
口①①口 |③---|
口口口口 |④---|
18
口口口口 |①---|
口口①口 |②---|
口口②口 |----|
口口口口 |----|
19
口口口口 |①---|
口①口口 |②---|
口②口口 |----|
口口口口 |----|
20
口口口口 |①---|
口口口口 |②---|
口口①口 |----|
口②口口 |----|
21
口口口口 |①---|
口③口口 |②---|
④口②④ |③---|
口口口① |④---|
22
①①口口 |①---|
②②口口 |②---|
③③口口 |③---|
口口口口 |----|
23
口口口④ |①---|
口口口③ |②---|
口口口② |③---|
口口口① |④---|
24
口①①口 |①---|
口②②口 |②---|
口③③口 |③---|
口口口口 |----|
25
④口口口 |①---|
③口口口 |②---|
②口口口 |③---|
①口口口 |④---|
26
口口①① |①---|
口口②② |②---|
口口③③ |③---|
口口口口 |----|
27
口④口口 |①---|
口③口口 |②---|
口②口口 |③---|
口①口口 |④---|
28
①口口① |①---|
②口口② |②---|
③口口③ |③---|
口口口口 |----|
29
口口④口 |①---|
口口③口 |②---|
口口②口 |③---|
口口①口 |④---|
30
①⑤④口 |①--②|
口②口口 |--③-|
口口③口 |--④-|
口口口口 |⑤---|
31
口口口① |①--②|
④口②④ |--③-|
口③口口 |----|
口口口口 |④---|
32
④口口口 |①---|
口③口口 |②---|
口口②口 |③---|
口口口① |④---|
33
口口①① |①---|
口口②② |②---|
口口口口 |----|
口口口口 |----|
34
口口口④ |①---|
口口③口 |②---|
口②口口 |③---|
①口口口 |④---|
35
①①口口 |①---|
②②口口 |②---|
口口口口 |----|
口口口口 |----|
36
④口口口 |①---|
口③口口 |②---|
口口②口 |③---|
口口口① |④---|
37
口口口口 |①---|
②口口② |②---|
①口口① |----|
口口口口 |----|
38
口口口口 |①---|
口口口口 |----|
①口口① |②---|
②口口② |----|
39
口口口口 |①---|
口口口口 |----|
口①①口 |②---|
口②②口 |----|
40
口口③口 |①---|
②口④口 |②---|
①口⑤口 |③-④-|
口口口口 |⑤---|
41
口口口③ |①---|
口②口④ |②---|
口①口⑤ |③-④-|
口口口口 |⑤---|
42
③口口口 |①---|
④口②口 |②---|
⑤口①口 |③-④-|
口口口口 |⑤---|
43
口③口口 |①---|
口④②口 |②---|
口⑤①口 |③-④-|
口口口口 |⑤---|
44
③口口口 |①---|
④口②口 |②---|
⑤口①口 |③-④-|
口口口口 |⑤---|
45
口口口③ |①---|
口②口④ |②---|
口①口⑤ |③-④-|
口口口口 |⑤---|
46
③口口口 |①---|
④口②口 |②---|
⑤口①口 |③-④-|
口口口口 |⑤---|
47
口口口③ |①---|
口②口④ |②---|
口①口⑤ |③-④-|
口口口口 |⑤---|
48
口口口口 |①---|
口口口③ |②---|
②②口口 |--③-|
①①口口 |----|
49
口口口口 |①---|
③口口口 |②---|
口口②② |--③-|
口口①① |----|
50
口口口口 |①---|
口口口③ |②---|
口②②口 |--③-|
口①①口 |----|
51
口①①口 |①---|
④②②口 |②---|
口③③口 |③---|
口口口口 |④---|
52
②②④④ |①---|
口口口口 |②---|
口口口口 |③---|
③③①① |④---|
53
口口口口 |①---|
①口③口 |②---|
口②口④ |③---|
口口口口 |④---|
54
④④②② |①---|
口口口口 |②---|
口口口口 |③---|
①①③③ |④---|
55
口口口口 |①---|
口③口① |②---|
④口②口 |③---|
口口口口 |④---|
56
②②④④ |①---|
口口口口 |②---|
口口口口 |③---|
③③①① |④---|
57
口口口口 |①---|
①口③口 |②---|
口②口④ |③---|
口口口口 |④---|
58
④④②② |①---|
口口口口 |②---|
口口口口 |③---|
①①③③ |④---|
59
口口口口 |①-②-|
口②①⑦ |③-④-|
口④③口 |⑤-⑥-|
口⑥⑤口 |⑦---|
60
口①①口 |①---|
口②②口 |----|
口口口口 |②---|
口口口口 |----|
61
口口口口 |①---|
口口口口 |----|
口①①口 |②---|
口②②口 |----|
62
口口口口 |①---|
口口口口 |----|
口口口口 |----|
①口口① |----|
63
口口口口 |①---|
口③②口 |----|
①②③① |②---|
口口口口 |③---|
64
①口口① |①---|
②口口② |----|
口口口口 |②---|
口口口口 |----|
65
口口口口 |①---|
口口口口 |----|
①口口① |②---|
②口口② |----|
66
口口口口 |①---|
口口口口 |----|
口①①口 |----|
口口口口 |----|

不確定度: 0

最終更新:2017年07月30日 19:17