sweet sweet everytime sweet
海老名菜々(CV:影山灯)

BASIC

Level: 3
BPM: 110
Notes: 142

1
口口口口 |----|
口口口口 |----|
口口口口 |----|
口口口口 |----|
2
②口口① |①---|
口口口口 |----|
口口口口 |②---|
口口口口 |----|
3
口口口口 |①---|
口口①口 |②---|
口②口口 |③---|
口口③口 |----|
4
口口口口 |①---|
②口口① |----|
口口口口 |②---|
口口口口 |----|
5
口口口口 |①---|
口口口口 |----|
口①①口 |----|
口口口口 |----|
6
口口口口 |①---|
②口口① |----|
口口口口 |②---|
口口口口 |----|
7
口口口口 |①---|
口口口口 |----|
②口口① |②---|
口口口口 |----|
8
口口口口 |①---|
口口口口 |----|
口口口口 |②---|
②口口① |----|
9
口口口口 |①---|
口①①口 |②---|
口②②口 |----|
口口口口 |----|
10
口口口① |①---|
口口②口 |----|
口口口口 |②---|
口口口口 |----|
11
①口口口 |①---|
口②口口 |----|
口口口口 |②---|
口口口口 |----|
12
口口③② |①---|
口口口口 |----|
口①①口 |②---|
口口口口 |③---|
13
口口口口 |①---|
①②口口 |②---|
口口④③ |③---|
口口口口 |④---|
14
①口口口 |①---|
口②口口 |----|
口口口口 |②---|
口口口口 |----|
15
口口口① |①---|
口口②口 |----|
口口口口 |②---|
口口口口 |----|
16
口口口口 |①---|
②口口② |----|
③①①③ |②---|
口口口口 |③---|
17
口口口口 |①---|
口口口口 |----|
口口口口 |----|
①口口① |----|
18
口口口口 |①---|
口口口口 |----|
口①①口 |----|
口①①口 |----|
19
口①①口 |①---|
口①①口 |----|
口口口口 |----|
口口口口 |----|
20
口口口口 |①---|
②口口① |----|
口口口口 |②---|
口口口口 |----|
21
口口①口 |①---|
口②口口 |②---|
口口③口 |③---|
口④口口 |④---|
22
口口口口 |①---|
口①①口 |----|
口①①口 |----|
口口口口 |----|
23
口口口口 |①---|
口①①口 |----|
口①①口 |----|
口口口口 |----|
24
②口口① |①---|
口口口口 |----|
口口口口 |②---|
口口口口 |----|
25
口口口口 |①---|
口①①口 |②---|
口②②口 |③---|
口③③口 |----|
26
口口口口 |①---|
④③②① |②---|
口口口口 |③---|
口口口口 |④---|
27
口口口① |①---|
口口②口 |②---|
口③口口 |③---|
口口口口 |----|
28
口口口口 |①---|
①②③④ |②---|
口口口口 |③---|
口口口口 |④---|
29
口口口口 |①---|
②②③③ |----|
口①①口 |②---|
口口口口 |③---|
30
口口口口 |①---|
①②③④ |②---|
口口口口 |③---|
口口口口 |④---|
31
①口口口 |①---|
口②口口 |②---|
口口③口 |③---|
口口口口 |----|
32
口口口口 |①---|
①②②① |----|
口口口口 |②---|
口口口口 |----|
33
口口口口 |①---|
口口口口 |----|
口①①口 |----|
口口口口 |----|
34
口口口口 |①---|
口①①② |----|
口①①口 |②---|
口口口口 |----|
35
口口口口 |①---|
②①①口 |----|
口①①口 |②---|
口口口口 |----|
36
口口口口 |①---|
口口口口 |②---|
④③②① |③---|
口口口口 |④---|
37
口口口口 |①---|
口口①口 |②---|
口②口口 |③---|
口口③口 |----|
38
口口口口 |①---|
口①①② |----|
口①①口 |②---|
口口口口 |----|
39
口口口口 |①---|
②①①口 |----|
口①①口 |②---|
口口口口 |----|
40
口口口口 |①---|
④③②① |②---|
口口口口 |③---|
口口口口 |④---|
41
口口口口 |①---|
口口口口 |②---|
口①①口 |----|
口②②口 |----|
42
口口口口 |①---|
口①①口 |----|
口①①口 |----|
口口口口 |----|

不確定度: 0

最終更新:2017年07月30日 19:16