sweet sweet everytime sweet
海老名菜々(CV:影山灯)

ADVANCED

Level: 6
BPM: 110
Notes: 365

1
口口口口 |----|
口口口口 |----|
口口口口 |----|
口口口口 |----|
2
④口口① |①-②-|
口⑤②口 |③-④-|
⑥⑦⑦③ |⑤-⑥-|
口⑧⑧口 |⑦-⑧-|
3
口②①④ |①---|
②③③① |②---|
口③③口 |③---|
口口口口 |--④-|
4
①口口口 |①---|
③②②③ |②---|
口④④口 |③---|
口口口口 |④---|
5
④口口④ |①---|
口③③口 |②---|
②口口② |③---|
①口口① |④---|
6
口口①口 |①--②--|
④②口⑤ |③-④--⑤|
③口⑥口 |---⑥--|
口口口⑦ |⑦-----|
7
口①口口 |①--②--|
口⑤②④ |③-④--⑤|
⑥口口③ |---⑥--|
口⑦口口 |⑦-----|
8
口②①口 |①---|
②口口① |②---|
④口口③ |③---|
口④③口 |④---|
9
口口口口 |①-②-|
口①①口 |③---|
口②②口
口③③口

口口④口
口⑤口口
口口⑥口 |--④-|
口口口口 |⑤-⑥-|
10
口口口口 |①---|
②口口① |②---|
②④③① |③---|
口口口口 |④---|
11
①口口④ |①-②-|
⑤②③口 |③-④-|
口⑥口口 |--⑤-|
口口⑦口 |⑥-⑦-|
12
口口口口 |①---|
口口口口 |②---|
②口口①
②口口①

口口③③
④④口口
口口⑤⑤ |③-④-|
⑥⑥口口 |⑤-⑥-|
13
口⑤⑥口 |①---|
⑤口①⑥ |②---|
④②口③ |③-④-|
口④③口 |⑤-⑥-|
14
①③④② |①---|
口③④口 |②---|
口口口口 |③---|
口口口口 |④---|
15
口口口⑤ |①-②-|
口口⑥口 |③-④-|
①⑦口④ |--⑤-|
口②③口 |⑥-⑦-|
16
④口口④ |①---|
口⑤⑤口 |②---|
①口口② |③---|
①③③② |④-⑤-|
17
②②②② |①---|
口口口口 |----|
①口口① |②---|
③③③③ |③---|
18
口④④口 |①-----|
②①①② |---②--|
③①①③ |③----④|
口口口口 |------|
19
口④④⑤ |①-----|
②①①② |---②--|
③①①③ |③----④|
口口口口 |---⑤--|
20
②⑦⑥口 |①-②-|
⑧③①⑤ |③-④-|
口口④口 |⑤-⑥-|
口口口口 |⑦-⑧-|
21
⑤口口⑤ |①-②-|
口口口口 |③-④-|
①口口④ |--⑤-|
⑥②③⑥ |⑥---|
22
口④④口 |①-----|
②①①② |---②--|
③①①③ |③----④|
口口口口 |------|
23
口④④⑤ |①-----|
②①①② |---②--|
③①①③ |③----④|
口口口口 |---⑤--|
24
②口口口 |①-②-|
口③①口 |③-④-|
口口口口
口口口④

口口口口
口⑧⑧口
口⑦⑤口 |⑤-⑥-|
⑥口口口 |⑦-⑧-|
25
①口口① |①-②-|
②口口② |③-④-|
③口口③
④口口④

口⑥口口
⑥口口口
口⑤⑤口 |⑤---|
口口口口 |⑥---|
26
④口口① |①-②-|
口⑤②口 |③-④-|
⑥⑧⑦③ |⑤-⑥-|
口⑧⑦口 |⑦-⑧-|
27
口口口口 |①---|
②③③① |②---|
②③③① |③---|
口口口口 |----|
28
①②口口 |①-②-|
口口④③ |③-④-|
⑤口口⑧ |⑤-⑥-|
口⑥⑦口 |⑦-⑧-|
29
②口口口 |①---|
口口口口 |--②-|
口①①口
口口口口

口口口口
③口口口
口④口④ |③---|
口口④口 |④---|
30
④口口① |①-②-|
口⑤②口 |③-④-|
⑥⑦⑦③ |⑤-⑥-|
口⑧⑧口 |⑦-⑧-|
31
口②①口 |①---|
②口口① |②---|
口口口口
口口口口

口④④口
口③③口
口③③口 |③---|
口口口口 |--④-|
32
⑤口口⑥ |①-②-|
①口口④ |③-④-|
⑤②③⑥ |⑤---|
口口口口 |⑥---|
33
口口口口 |①---|
口口口口 |----|
口①①口 |----|
口①①口 |----|
34
口④④口 |①---|
②①①② |--②-|
③①①③ |③---|
口口口口 |④---|
35
口④④口 |①---|
②①①② |--②-|
③①①③ |③---|
口口口口 |④---|
36
①口口口 |①-②-|
口②口③ |③-④-|
⑤口④⑧ |⑤-⑥-|
口⑥⑦口 |⑦-⑧-|
37
①口口② |①-②-|
①口口② |③-④-|
口③④口
口③④口

⑥口口⑥
口⑤⑤口
⑤口口⑤ |⑤---|
口口口口 |⑥---|
38
口④④口 |①---|
②①①② |--②-|
③①①③ |③---|
口口口口 |④---|
39
④④④④ |①---|
②①①② |--②-|
③①①③ |③---|
口口口口 |④---|
40
口口口口 |①-②-|
③⑥⑤① |③-④-|
④⑧⑦② |⑤-⑥-|
口口口口 |⑦-⑧-|
41
①①①① |①---|
④口口③ |②---|
⑥口口⑤ |③-④-|
②②②② |⑤-⑥-|
42
口口口口 |①---|
口①①口 |----|
口①①口 |----|
口口口口 |----|

不確定度: 0

最終更新:2017年07月30日 19:15