My Precious
本場切絵(CV:白石晴香)

BASIC

Level: 3
BPM: 136
Notes: 131

1
口口口口 |----|
口口口口 |----|
口口口口 |----|
口口口口 |----|
2
口口口口 |----|
口口口口 |----|
口口口口 |----|
口口口口 |----|
3
口口口口 |①---|
口①①口 |----|
口口口口 |----|
口口口口 |----|
4
口口口口 |①---|
口①①口 |----|
口口口口 |----|
口口口口 |----|
5
口口口口 |①---|
口口口口 |----|
口①①口 |----|
口口口口 |----|
6
口口口口 |①---|
口口口口 |----|
口①①口 |----|
口口口口 |----|
7
口口口口 |①---|
口①①口 |----|
口口口口 |----|
口口口口 |----|
8
口口口口 |①---|
口②①口 |----|
口口口口 |②---|
口口口口 |----|
9
口口口口 |①---|
口口口口 |----|
口口①口 |----|
口口口口 |----|
10
口口口口 |----|
口①口口 |----|
口口口口 |①---|
口口口口 |----|
11
①②口口 |①---|
口口口口 |----|
口口口口 |②---|
口口口口 |----|
12
口口①口 |①---|
口口口② |----|
口口口口 |②---|
口口口口 |----|
13
口口口口 |①---|
口②①口 |----|
口口口口 |②---|
口口口口 |----|
14
口口口口 |①---|
口口口口 |----|
①口口口 |----|
口口口口 |----|
15
口口口口 |①---|
口口口口 |----|
①②口口 |②---|
口口口口 |----|
16
口口口口 |①---|
口口口口 |----|
口口①口 |②---|
口口口② |----|
17
口口口口 |①---|
口口口口 |----|
口口口口 |②---|
口②①口 |----|
18
口口口口 |----|
口口口口 |----|
口口口口 |----|
口口口口 |----|
19
口口口口 |①---|
口口口口 |----|
口口口口 |②---|
①②口口 |----|
20
口口口口 |①---|
口口口口 |----|
口口口② |②---|
口口①口 |----|
21
口口口口 |①---|
口口口口 |----|
口②①口 |②---|
口口口口 |----|
22
口口口口 |①---|
①口口口 |----|
口口口口 |----|
口口口口 |----|
23
口口口口 |①---|
①②口口 |----|
口口口口 |②---|
口口口口 |----|
24
口口口② |①---|
口口①口 |----|
口口口口 |②---|
口口口口 |----|
25
口②①口 |①---|
口口口口 |----|
口口口口 |②---|
口口口口 |----|
26
①口口口 |①---|
口②口口 |----|
口口口口 |②---|
口口口口 |----|
27
口口口口 |①---|
口口口口 |----|
口①①口 |----|
口口口口 |----|
28
口口口口 |①---|
口口口口 |----|
口口口口 |②---|
口口②① |----|
29
口口口口 |①---|
口口口口 |----|
口口口口 |②---|
②①口口 |----|
30
口口口口 |①---|
口②②口 |----|
口①①口 |②---|
口口口口 |----|
31
口口②① |①---|
口口口口 |----|
口口口口 |②---|
口口口口 |----|
32
②①口口 |①---|
口口口口 |----|
口口口口 |②---|
口口口口 |----|
33
口口口口 |①---|
口①②口 |----|
口口口口 |②---|
口口口口 |----|
34
口口口口 |①---|
口口口② |----|
口①①口 |----|
口口口口 |②---|
35
②②口口 |①---|
③③①口 |②---|
口口口口 |③---|
口口口口 |----|
36
口口①① |①---|
口口②② |②---|
口③④口 |③---|
口口口口 |④---|
37
口口口口 |①---|
口口口口 |----|
口口口口 |②---|
口①②口 |----|
38
口口口口 |①---|
口口口② |----|
口口口① |----|
口口口口 |②---|
39
②②口口 |①---|
③③①口 |②---|
口口口口 |③---|
口口口口 |----|
40
口口①① |①---|
口口②② |②---|
口③④口 |③---|
口口口口 |④---|
41
口口口口 |①---|
口口口口 |----|
口口②② |②---|
口①口口 |----|
42
口口口口 |①---|
口口口口 |----|
①①口口 |②---|
口②②口 |----|
43
口口口口 |①---|
口①①② |----|
口口口口 |②---|
口口口口 |----|
44
口口口口 |①---|
口②①口 |----|
口口口口 |②---|
口口口口 |----|
45
口口口口 |----|
口口口口 |①---|
口①①口 |----|
口②②口 |②---|
46
口口口口 |①---|
口口口口 |----|
①②口口 |②---|
口口口口 |----|
47
口口口口 |①---|
口口口口 |----|
口②②口 |②---|
口①①口 |----|
48
口口口口 |①---|
①口②① |----|
口口口口 |②---|
口口口口 |----|
49
口口口口 |①---|
口口口口 |----|
口①①口 |----|
口口口口 |----|
50
口口口口 |----|
口口口口 |----|
口口①口 |①---|
口口口口 |----|
51
口口口口 |①---|
口①①口 |----|
口口口口 |----|
口口口口 |----|
52
口口口口 |①---|
口①①口 |----|
口口口口 |----|
口口口口 |----|
53
口口口口 |①---|
口口口口 |----|
口①①口 |----|
口口口口 |----|
54
口口口口 |①---|
口口口口 |----|
口①①口 |----|
口口口口 |----|
55
口口口口 |①---|
口①①口 |----|
口口口口 |----|
口口口口 |----|
56
口口口口 |①---|
口②①口 |----|
口口口口 |②---|
口口口口 |----|
57
口口口口 |①---|
口口口口 |----|
口口①口 |----|
口口口口 |----|
58
口②②口 |----|
口①口口 |----|
口口口口 |①---|
口口口口 |②---|

不確定度: 0

最終更新:2017年07月30日 19:15