My Precious
本場切絵(CV:白石晴香)

ADVANCED

Level: 5
BPM: 136
Notes: 278

1
口口口口 |----|
口口口口 |----|
口口口口 |----|
口口口口 |----|
2
口口口口 |----|
口口口口 |----|
口口口口 |----|
口口口口 |----|
3
口口口口 |--①-|
⑥口口⑤ |②-③-|
口④③口 |④-⑤-|
口②①口 |--⑥-|
4
口口口口 |--①-|
口⑦⑥⑤ |②-③-|
口④③口 |④-⑤-|
口②①口 |⑥-⑦-|
5
口口口口 |--①-|
⑥口口⑤ |②-③-|
口④③口 |④-⑤-|
口②①口 |--⑥-|
6
口口口口 |--①-|
口⑦⑥⑤ |②-③-|
口④③口 |④-⑤-|
口②①口 |⑥-⑦-|
7
口口口口 |①---|
①口口口 |----|
口口口口 |----|
口口口口 |----|
8
口口口① |①---|
口口②口 |②---|
口③口口 |③---|
④口口口 |④---|
9
口口口口 |①---|
口口口口 |----|
口口口口 |----|
口①①口 |----|
10
口口口口 |----|
口口口② |----|
口①①口 |①---|
口口口口 |--②-|
11
口口口口 |①---|
口口①口 |--②-|
②③口口 |③---|
口口口④ |--④-|
12
口口口口 |①---|
口口口口 |----|
口口②② |②---|
口口①口 |----|
13
口口口口 |①---|
①①②口 |②---|
口③③口 |--③-|
口④④口 |--④-|
14
口口口口 |----|
①口口口 |----|
口口口口 |----|
口口口口 |--①-|
15
口口口口 |①---|
口①口口 |--②-|
口口③② |③---|
④口口口 |--④-|
16
口口口口 |①---|
口口口口 |----|
口口②② |②---|
口①口口 |----|
17
口口口口 |①---|
口①①口 |②---|
②口口② |----|
口口口口 |----|
18
口口口口 |----|
口口口① |----|
口口口口 |----|
口口口口 |--①-|
19
口口口口 |①---|
口口①口 |--②-|
②③口口 |③---|
口口口④ |--④-|
20
口口口口 |①---|
口口口口 |----|
口口②② |②---|
口口①口 |----|
21
口口口口 |①---|
①①口口 |--②-|
口②②口
口口口口

④口口④
③口口③
口口口口 |--③-|
口口口口 |--④-|
22
口口口口 |----|
①口口口 |----|
口口口口 |----|
口口口口 |--①-|
23
口口口口 |①---|
口①③② |②-③-|
口口口口
口口口口

口口口口
口⑥口口
口④⑤口 |--④-|
口口口口 |⑤-⑥-|
24
口①①口 |----|
口②②口 |--①-|
口口口口 |----|
口口口口 |②---|
25
口口口口 |----|
口口口口 |----|
口口口口 |----|
口口口口 |----|
26
口口口口 |----|
口⑤⑤口 |--①-|
口口口口 |②-③-|
④③②① |④-⑤-|
27
口口口口 |----|
口口口口 |----|
口口口口 |----|
②②①① |①-②-|
28
口⑥⑤⑦ |--①-|
口④③口 |②-③-|
口②①口 |④-⑤-|
口口口口 |⑥-⑦-|
29
①口口口 |①---|
口②②口 |②---|
口口⑤口 |--③-|
口④③口 |④-⑤-|
30
口口④口 |①-②-|
口③②口 |③-④-|
口①口口
口口口口

口口口口
口口⑥⑤
口口口口 |----|
口口口口 |⑤-⑥-|
31
口口口口 |①---|
口①口口 |②---|
口②②口 |----|
口口口口 |----|
32
口口口口 |①---|
①①口口 |②-③-|
口③②口 |----|
口口④④ |④---|
33
口口口口 |①-②-|
口口口口 |③-④-|
①②③④
口口口口

口⑤⑤口
口⑥⑥口
口⑦⑦口 |--⑤-|
口口口口 |⑥-⑦-|
34
口口口口 |----|
口口口口 |----|
口口口口 |----|
②②①① |①-②-|
35
口口口口 |--①-|
口口口口 |②---|
②②①①
口口口口

口口口口
口③③口
⑤⑤④④ |③---|
口口口口 |④-⑤-|
36
口口口口 |--①-|
口①①口 |--②-|
口口口口
口②②口

口口口口
口⑤口③
口口④口 |--③-|
口口口口 |④-⑤-|
37
口口②口 |①---|
⑥③口⑥ |--②-|
①口④口 |③-④-|
口⑤口口 |⑤-⑥-|
38
口口口口 |--①-|
口口口口 |----|
①口口① |----|
③③②② |②-③-|
39
口口口口 |--①-|
口口口口 |②---|
②②①①
口口口口

口口口口
口③③口
⑤⑤④④ |③---|
口口口口 |④-⑤-|
40
口口口口 |--①-|
口①①口 |--②-|
口口口口
口②②口

口口口口
口⑤口③
口口④口 |--③-|
口口口口 |④-⑤-|
41
口口口口 |①---|
口口口口 |--②-|
①口②②
口口口口

口口口口
口口口口
④④口口 |③---|
口口③③ |--④-|
42
口口口口 |①---|
③口口② |②-③-|
口④④口 |--④-|
①①口口 |----|
43
①口②① |①---|
口③口口 |--②-|
口口口口 |----|
口口口口 |③---|
44
口口口口 |①---|
口口口口 |②---|
①②③④ |③---|
口口口口 |④---|
45
口口口⑤ |--①-|
③口③口 |②---|
①④①口 |③-④-|
口②口口 |--⑤-|
46
①口口口 |①-②-|
③口口② |③-④-|
口口口④
口口口口

口口口口
口口口⑥
口⑤口口 |--⑤-|
口口口口 |--⑥-|
47
④口口④ |①---|
②③①口 |②-③-|
口口口口 |--④-|
口口口口 |----|
48
口口口口 |①---|
④⑤③② |--②-|
①口口① |③---|
口口口口 |④-⑤-|
49
口口口口 |--①-|
口口口口 |----|
口①①口 |----|
口口口口 |----|
50
口口口口 |----|
口口口口 |--①-|
③④②① |②---|
口口口口 |③-④-|
51
口口口口 |--①-|
⑥口口⑤ |②-③-|
口④③口 |④-⑤-|
口②①口 |--⑥-|
52
口口口口 |--①-|
口⑦⑥⑤ |②-③-|
口④③口 |④-⑤-|
口②①口 |⑥-⑦-|
53
口口口口 |--①-|
⑥口口⑤ |②-③-|
口④③口 |④-⑤-|
口②①口 |--⑥-|
54
口口口口 |--①-|
口⑦⑥⑤ |②-③-|
口④③口 |④-⑤-|
口②①口 |⑥-⑦-|
55
口口口口 |①---|
①口口口 |----|
口口口口 |----|
口口口口 |----|
56
口口口① |①---|
口口②口 |②---|
口③口口 |③---|
④口口口 |④---|
57
口口口口 |①---|
口口口口 |----|
口口口口 |----|
口①①口 |----|
58
口口口口 |----|
③③②② |----|
口①①口 |①---|
口口口口 |②-③-|

不確定度: 0

最終更新:2017年07月30日 19:15