coming true
GUHROOVY Vs. L.E.D.
BASIC
Level: 5
BPM: 175
Notes: 341
1
口口口口 |----|
口口口口 |----|
口口口口 |----|
口口口口 |----|
2
口口口口 |①---|
口①①口 |----|
口口口口 |----|
口口口口 |----|
3
口①②口 |①---|
口③④口 |②---|
口口口口 |③---|
口口口口 |④---|
4
口口口口 |①---|
③口口④ |②---|
①口口② |③---|
口口口口 |④---|
5
口口口口 |①---|
口口口口 |②---|
口①②口 |③---|
口③④口 |④---|
6
口口口口 |①---|
③口口④ |②---|
口口口口 |③---|
①口口② |④---|
7
口口口口 |①---|
口①②口 |②---|
口③④口 |③---|
口口口口 |④---|
8
口①②口 |①---|
口口口口 |②---|
③口口④ |③---|
口口口口 |④---|
9
①口口② |①---|
口口口口 |②---|
③口口④ |③---|
口口口口 |④---|
10
口口口口 |①---|
口①①口 |----|
口③口口 |②---|
②口口口 |③---|
11
口口口口 |①---|
口口口口 |----|
口口①② |②---|
口口③口 |③---|
12
口口口口 |①---|
口③口口 |----|
②口口口 |②---|
口①口口 |③---|
13
口口口口 |①---|
口口①② |----|
口口③口 |②---|
口口口口 |③---|
14
口③口口 |①---|
②口口口 |----|
口①口口 |②---|
口口口口 |③---|
15
口口①② |①---|
口口③口 |----|
口口口口 |②---|
口口口口 |③---|
16
②③口口 |①---|
口①口口 |----|
口口口口 |②---|
口口口口 |③---|
17
口口①口 |①---|
口④④口 |----|
口③③口 |②--③|
口②②口 |--④-|
18
②③④口 |①---|
口口口口 |----|
①口口① |②--③|
口口口口 |--④-|
19
口口口口 |①---|
①口口① |----|
口口口口 |②--③|
口④③② |--④-|
20
②③④口 |①---|
口口口口 |----|
口①①口 |②--③|
口口口口 |--④-|
21
口口口口 |①---|
口①①口 |----|
口口口口 |②--③|
口④③② |--④-|
22
②③④口 |①---|
口口口口 |----|
①口口① |②--③|
口口口口 |--④-|
23
口口口口 |①---|
①口口① |----|
口口口口 |②--③|
口④③② |--④-|
24
口口口口 |①---|
②③④口 |----|
口①①口 |②--③|
口口口口 |--④-|
25
口①①口 |①---|
口口口口 |----|
口口口口 |②--③|
口④③② |--④-|
26
②③④口 |①---|
口口口口 |----|
①口口① |②--③|
口口口口 |--④-|
27
口口口口 |①---|
①口口① |----|
口口口口 |②--③|
口④③② |--④-|
28
②③④口 |①---|
口口口口 |----|
口①①口 |②--③|
口口口口 |--④-|
29
口口口口 |①---|
口①①口 |----|
口口口口 |②--③|
口④③② |--④-|
30
②③④口 |①---|
口口口口 |----|
①口口① |②--③|
口口口口 |--④-|
31
口口口口 |①---|
①口口① |----|
口口口口 |②--③|
口④③② |--④-|
32
口口口口 |①---|
②③④口 |----|
口①①口 |②--③|
口口口口 |--④-|
33
口①①口 |①---|
口口口口 |----|
口口口口 |②--③|
口④③② |--④-|
34
口口口口 |①---|
口②③口 |----|
①口口① |--②-|
口口口口 |--③-|
35
①③口② |①-②-|
口口口口 |--③-|
口口口口 |----|
口口口口 |----|
36
口口口口 |①---|
口②③口 |----|
①口口① |--②-|
口口口口 |--③-|
37
口②口① |--①-|
口口口口 |--②-|
口口口口 |----|
口口口口 |----|
38
口口口口 |①---|
①口口① |----|
口②③口 |--②-|
口口口口 |--③-|
39
口口口口 |①-②-|
口口口口 |--③-|
口口口口 |----|
①③口② |----|
40
口口口口 |①---|
①口口① |----|
口②③口 |--②-|
口口口口 |--③-|
41
口口口口 |--①-|
口口口口 |--②-|
口口口口 |----|
口②口① |----|
42
口口口口 |①---|
口②③口 |----|
①口口① |--②-|
口口口口 |--③-|
43
①③口② |①-②-|
口口口口 |--③-|
口口口口 |----|
口口口口 |----|
44
口口口口 |①---|
口②③口 |----|
①口口① |--②-|
口口口口 |--③-|
45
口②口① |--①-|
口口口口 |--②-|
口口口口 |----|
口口口口 |----|
46
口口口口 |①---|
①口口① |----|
口②③口 |--②-|
口口口口 |--③-|
47
口口口口 |①-②-|
口口口口 |--③-|
口口口口 |----|
①③口② |----|
48
口口口口 |①---|
①口口① |----|
口②③口 |--②-|
口口口口 |--③-|
49
口口口口 |--①-|
口口口口 |--②-|
口口口口 |----|
口②口① |----|
50
口口口口 |①---|
口①①口 |----|
口口口口 |----|
口口口口 |----|
51
口口口口 |①---|
口②口口 |----|
①口口① |----|
口口口口 |②---|
52
口口口口 |①---|
口口①口 |----|
口口口口 |----|
口口口口 |----|
53
口口口口 |①---|
口口口口 |----|
①口口① |----|
口口口口 |----|
54
口口口口 |①---|
②口口口 |----|
口口口口 |----|
口①①口 |②---|
55
口口口口 |①---|
口口口① |----|
口口口口 |----|
口口口口 |----|
56
口口口口 |①---|
口口口口 |----|
口①①口 |----|
口口口口 |----|
57
口口口口 |①---|
①口口① |----|
口口口口 |----|
口口口口 |----|
58
口口口口 |①---|
口口口口 |----|
口口口口 |----|
口①①口 |----|
59
口①①口 |①---|
口④③② |----|
口口口口 |②--③|
口口口口 |--④-|
60
②③④口 |①---|
口口口口 |----|
口①①口 |②--③|
口口口口 |--④-|
61
口口口口 |①---|
口①①口 |----|
口口口口 |②--③|
口④③② |--④-|
62
口口口口 |①---|
口②③④ |----|
①口口① |②--③|
口口口口 |--④-|
63
①口口① |①---|
口口口口 |----|
④③②口 |②--③|
口口口口 |--④-|
64
口口口口 |①---|
口①①口 |----|
口口口口 |②--③|
口④③② |--④-|
65
口口口口 |①--②|
①②③④ |--③-|
口口⑤口 |-④--|
口口口口 |⑤---|
66
②③④口 |①---|
口口口口 |----|
①口口① |②--③|
口口口口 |--④-|
67
口口口口 |①---|
①口口① |----|
口口口口 |②--③|
口④③② |--④-|
68
②③④口 |①---|
口口口口 |----|
口①①口 |②--③|
口口口口 |--④-|
69
口口口口 |①---|
口①①口 |----|
口口口口 |②--③|
口④③② |--④-|
70
②③④口 |①---|
口口口口 |----|
①口口① |②--③|
口口口口 |--④-|
71
口口口口 |①---|
①口口① |----|
口口口口 |②--③|
口④③② |--④-|
72
口口口口 |①---|
②③④口 |----|
口①①口 |②--③|
口口口口 |--④-|
73
口①①口 |①---|
口口口口 |----|
口口口口 |②--③|
口④③② |--④-|
74
②③④口 |①---|
口口口口 |----|
①口口① |②--③|
口口口口 |--④-|
75
口口口口 |①---|
①口口① |----|
口口口口 |②--③|
口④③② |--④-|
76
②③④口 |①---|
口口口口 |----|
口①①口 |②--③|
口口口口 |--④-|
77
口口口口 |①---|
口①①口 |----|
口口口口 |②--③|
口④③② |--④-|
78
②③④口 |①---|
口口口口 |----|
①口口① |②--③|
口口口口 |--④-|
79
口口口口 |①---|
①口口① |----|
口口口口 |②--③|
口④③② |--④-|
80
口口口口 |①---|
②③④口 |----|
口①①口 |②--③|
口口口口 |--④-|
81
①②③口 |①--②|
口口口口 |--③-|
口口口口 |④--⑤|
口⑥⑤④ |--⑥-|
82
口口口口 |①---|
口①口口 |----|
口口①口 |----|
口口口口 |----|
83
口口口口 |①---|
口③③口 |--②-|
口②②口 |----|
口①①口 |③---|
84
①口口① |①---|
口口口口 |----|
口口口口 |----|
口口口口 |----|
85
口口口口 |----|
口①口口 |----|
口口口口 |----|
口口口口 |①---|
86
口口口口 |①---|
口口①口 |----|
口口口口 |----|
口口口口 |----|
87
①口口① |①---|
口口口口 |----|
口口口口 |----|
口口口口 |----|
88
口口口口 |①---|
口口口口 |----|
口口口口 |----|
口①①口 |----|
不确定度: 0