六花にくちづけ
Akhuta

BASIC

Level: 5
BPM: 210
Notes: 291

1
口口口口 |----|
口口口口 |----|
口口口口 |----|
口口口口 |----|
2
①①①① |①---|
口口口口 |----|
口口口口 |----|
口口口口 |----|
3
口④口口 |①---|
口口③口 |②---|
口②口口 |③---|
口口①口 |④---|
4
①口口① |①---|
②口口② |--②-|
③口口③ |----|
口口口口 |③---|
5
口口口口 |--①-|
口③②口 |----|
口②③口 |②---|
①口口① |③---|
6
②②口① |①---|
口口口口 |--②-|
口口口口 |----|
口口口口 |----|
7
口口口口 |①---|
口口口口 |--②-|
口口口口 |----|
②②口① |----|
8
③口口③ |①---|
②口口② |--②-|
①口口① |----|
口口口口 |③---|
9
口②②口 |①---|
口口口口 |----|
口①①口 |②---|
口口口口 |----|
10
口口口② |①---|
口口口③ |--②-|
口口口④ |--③-|
口①①口 |--④-|
11
口口口口 |----|
口口口口 |----|
口口口口 |----|
口口口口 |----|
12
②口口口 |①---|
③口口口 |--②-|
④口口口 |--③-|
口①①口 |--④-|
13
口口口口 |----|
口口口口 |----|
口口口口 |----|
口口口口 |----|
14
②②口① |①---|
口口口口 |--②-|
口口口口 |----|
口口口口 |----|
15
口口口口 |①---|
口口口口 |--②-|
口口口口 |----|
②②口① |----|
16
③口口③ |①---|
②口口② |--②-|
①口口① |----|
口口口口 |③---|
17
口口口口 |①---|
口②①口 |②---|
口④③口 |③---|
口口口口 |④---|
18
口口口口 |①---|
①口口① |----|
口口口口 |----|
口口口口 |----|
19
口口口口 |----|
口口口口 |----|
口口口口 |----|
口口口口 |----|
20
口口口口 |①---|
口口口口 |--②-|
口②口口 |----|
口口①口 |----|
21
口口①口 |----|
口口②口 |①---|
口口③口 |②---|
口口口口 |③---|
22
口口口口 |①---|
口口口口 |--②-|
口②口口 |----|
口口①口 |----|
23
口口①口 |----|
口口②口 |①---|
口口③口 |②---|
口口口口 |③---|
24
口口口口 |①---|
口口口口 |--②-|
口②口口 |----|
口口①口 |----|
25
口口口口 |①---|
口口口口 |--②-|
口②口口 |----|
口口①口 |----|
26
口口口口 |①---|
口口口口 |--②-|
口②口口 |----|
口口①口 |----|
27
口口口口 |①---|
口口口口 |--②-|
口②口口 |----|
口口①口 |----|
28
口口口口 |①---|
口口口口 |--②-|
口②口口 |----|
口口①口 |----|
29
口口①口 |----|
口口②口 |①---|
口口③口 |②---|
口口口口 |③---|
30
口口口口 |①---|
口口口口 |--②-|
口②口口 |----|
口口①口 |----|
31
口口口口 |①---|
口①①口 |----|
口口口口 |----|
口口口口 |----|
32
口口口口 |①---|
口口口口 |--②-|
口②口口 |----|
口口①口 |----|
33
口口口口 |①---|
口口口口 |--②-|
口②口口 |----|
口口①口 |----|
34
口口口口 |①---|
口①①口 |----|
口口口口 |----|
口口口口 |----|
35
口口②① |①---|
口口口口 |----|
口口口口 |②---|
口口口口 |----|
36
②①口口 |①---|
口口口口 |----|
口口口口 |②---|
口口口口 |----|
37
口口口口 |①---|
口口②① |----|
口口口口 |②---|
口口口口 |----|
38
口口口口 |①---|
②①口口 |----|
口口口口 |②---|
口口口口 |----|
39
口口口口 |①---|
口口口口 |----|
口口②① |②---|
口口口口 |----|
40
口口口口 |①---|
口口口口 |----|
②①口口 |②---|
口口口口 |----|
41
口口口口 |①---|
口②②口 |----|
口口口口 |②---|
口①①口 |----|
42
口口口口 |①---|
口口口口 |--②-|
口②口口 |----|
口口①口 |----|
43
口口①口 |----|
口口②口 |①---|
口口③口 |②---|
口口口口 |③---|
44
口口口口 |①---|
口口口口 |--②-|
口②口口 |----|
口口①口 |----|
45
口口①口 |----|
口口②口 |①---|
口口③口 |②---|
口口口口 |③---|
46
口口口口 |①---|
口口③口 |--②-|
口②口口 |----|
口口①口 |③---|
47
口口口口 |①---|
口口③口 |--②-|
口②口口 |----|
口口①口 |③---|
48
口口口口 |①---|
口口③口 |--②-|
口②口口 |----|
口口①口 |③---|
49
口口口口 |①---|
口口口口 |--②-|
口②口口 |----|
口口①口 |----|
50
口口口口 |①---|
口口口口 |--②-|
口②口口 |----|
口口①口 |----|
51
口口①口 |----|
口口②口 |①---|
口口③口 |②---|
口口口口 |③---|
52
口口口口 |①---|
口口③口 |--②-|
口②口口 |----|
口口①口 |③---|
53
口口口口 |①---|
口口口口 |----|
口口口口 |----|
口口①口 |----|
54
口口口口 |①---|
口口③口 |--②-|
口②口口 |----|
口口①口 |③---|
55
口口口口 |①---|
口口③口 |--②-|
口②口口 |----|
口口①口 |③---|
56
①口口① |①---|
②口口② |--②-|
口口口口 |----|
口口口口
57
口口口口 |①---|
口口口口 |----|
①口口① |----|
口口口口
58
口口①口 |①---|
口口口口 |----|
口口口口 |----|
口口口口
59
口口口口 |①---|
口①口口 |----|
口口口口 |----|
口口口口
60
口口口口 |①---|
口口口口 |----|
口口①口 |----|
口口口口
61
口口口口 |①---|
口口口口 |----|
口口口口 |----|
口①口口
62
口口口口 |①---|
口口口口 |----|
口口口口 |----|
口口口①
63
口口口口 |①---|
口口口口 |----|
①口口口 |----|
口口口口
64
口口口口 |①---|
口口口① |----|
口口口口 |----|
口口口口
65
①口口口 |①---|
口口口口 |----|
口口口口 |----|
口口口口
66
口口口口 |①---|
口口口口 |----|
口口口口 |----|
口口①口
67
口口口口 |①---|
口口口口 |----|
口①口口 |----|
口口口口
68
口口口口 |①---|
口口①口 |----|
口口口口 |----|
口口口口
69
口①口口 |①---|
口口口口 |----|
口口口口 |----|
口口口口
70
口口①口 |①---|
口口口口 |----|
口口口口 |----|
口口口口
71
口口口口 |①---|
口①口口 |----|
口口口口 |----|
口口口口
72
①口口① |①---|
口口口口 |----|
口口口口 |----|
口口口口
73
口口口口 |①---|
①口口① |----|
口口口口 |----|
口口口口
74
口口口口 |①---|
口口口口 |----|
①口口① |----|
口口口口
75
口口口口 |①---|
口口口口 |----|
口口口口 |----|
①口口①
76
口口口口 |①---|
口口口口 |----|
口①①口 |----|
口口口口
77
口口口口 |----|
口口口口 |----|
口口口口 |----|
口口口口
78
④③②① |①---|
口口口口 |②---|
口口口口 |③---|
口口口口 |④---|
79
口口口口 |①---|
④③②① |②---|
口口口口 |③---|
口口口口 |④---|
80
口口口口 |①---|
口③③口 |--②-|
口②②口 |----|
口①①口 |③---|
81
口口口口 |----|
口口口口 |----|
口口口口 |----|
口口口口 |----|
82
①②③④ |①---|
口口口口 |②---|
口口口口 |③---|
口口口口 |④---|
83
口口口口 |①---|
①②③④ |②---|
口口口口 |③---|
口口口口 |④---|
84
口口口口 |①---|
口③③口 |--②-|
口②②口 |----|
口①①口 |③---|
85
口口口口 |----|
口口口口 |----|
口口口口 |----|
口口口口 |----|
86
口口①口 |①---|
口口口口 |--②-|
口②②口 |----|
口口口口 |----|
87
口②口④ |①---|
①口③口 |②---|
口口口口 |③---|
口口口口 |④---|
88
口口①口 |①---|
口口口口 |--②-|
口②②口 |----|
口口口口 |----|
89
口口口口 |①---|
口①①口 |----|
口口口口 |----|
口口口口 |----|
90
口①口口 |①---|
口口口口 |--②-|
口②②口 |----|
口口口口 |----|
91
④口②口 |①---|
口③口① |②---|
口口口口 |③---|
口口口口 |④---|
92
口①口口 |①---|
口口口口 |--②-|
口②②口 |----|
口口口口 |----|
93
口口口口 |----|
口口口口 |----|
口口口口 |----|
口口口口 |----|
94
④③②① |①---|
口口口口 |②---|
口口口口 |③---|
口口口口 |④---|
95
口口口口 |①---|
④③②① |②---|
口口口口 |③---|
口口口口 |④---|
96
口口口口 |①---|
口③③口 |--②-|
口②②口 |----|
口①①口 |③---|
97
口口口口 |----|
口口口口 |----|
口口口口 |----|
口口口口 |----|
98
①②③④ |①---|
口口口口 |②---|
口口口口 |③---|
口口口口 |④---|
99
口口口口 |①---|
①②③④ |②---|
口口口口 |③---|
口口口口 |④---|
100
口口口口 |①---|
口③③口 |--②-|
口②②口 |----|
口①①口 |③---|
101
口口口口 |----|
口口口口 |----|
口口口口 |----|
口口口口 |----|
102
口口口口 |①---|
口口口口 |②---|
口④③口 |③---|
口②①口 |④---|
103
口④③口 |①---|
口②①口 |②---|
口口口口 |③---|
口口口口 |④---|
104
①③③① |①---|
②口口② |----|
口口口口 |②---|
口口口口 |--③-|
105
口口口口 |----|
口口口口 |----|
口口口口 |----|
口口口口 |----|
106
口②①口 |①---|
口④③口 |②---|
口口口口 |③---|
口口口口 |④---|
107
口口口口 |①---|
口口口口 |②---|
口②①口 |③---|
口④③口 |④---|
108
口口口口 |①---|
③口口③ |--②-|
②口口② |----|
①口口① |③---|
109
口口口口 |----|
口口③口 |①---|
口②①口 |②---|
口口口口 |③---|
110
②口口② |①---|
口①口口 |--②-|
口口口口 |----|
口口口口 |----|

不確定度: 0

最終更新:2017年07月30日 19:13