星宿る空の下で
Akhuta

BASIC

Level: 4
BPM: 204
Notes: 307

1
口口口口 |----|
口口口口 |----|
口口口口 |----|
口口口口 |----|
2
口①①口 |①---|
口②②口 |----|
口口口口 |----|
口口口口 |--②-|
3
口口口口 |----|
口口口口 |①---|
①口口① |----|
口口口口 |----|
4
口口口口 |----|
口口口口 |----|
口口口口 |----|
口口口口 |----|
5
口①①口 |①---|
口②②口 |----|
口口口口 |----|
口口口口 |--②-|
6
口口口口 |----|
口口口口 |①---|
①口口① |----|
口口口口 |----|
7
口口口口 |----|
口口口口 |----|
口口口口 |----|
口口口口 |----|
8
口口口③ |①---|
口口口口 |--②-|
口口②口 |----|
①口口口 |③---|
9
口口口口 |----|
口①口口 |①---|
口②口口 |②---|
口③口口 |③---|
10
口口口③ |①---|
口口口口 |--②-|
口口②口 |----|
①口口口 |③---|
11
口口口口 |----|
口口①口 |①---|
口口②口 |②---|
口口③口 |③---|
12
③口口口 |①---|
口口口口 |--②-|
口②口口 |----|
口口口① |③---|
13
口口口口 |----|
口口①口 |①---|
口口②口 |②---|
口口③口 |③---|
14
口口口口 |①---|
口口口口 |----|
口口口口 |----|
口口口① |----|
15
口口口口 |①---|
口②②口 |----|
口口口口 |②---|
①口口口 |----|
16
①口口口 |①---|
口口口口 |----|
口口口口 |----|
口口口口 |----|
17
口①口口 |①---|
口口口口 |----|
口口口口 |----|
口口口口 |----|
18
口口①口 |①---|
口口口口 |----|
口口口口 |----|
口口口口 |----|
19
口口口① |①---|
口口口口 |----|
口口口口 |----|
口口口口 |----|
20
口口口口 |①---|
口口口口 |----|
口②口口 |②---|
口①①口 |----|
21
口口口口 |----|
口②①口 |①---|
口口③口 |②---|
口口口口 |③---|
22
③口口口 |①---|
②口口口 |--②-|
口①口口 |----|
口口口口 |③---|
23
口口口口 |----|
口口口口 |----|
口口口口 |----|
口口口口 |----|
24
口口口口 |----|
口口口① |----|
口口口口 |①---|
口口口口 |----|
25
口口口口 |----|
口①②口 |①---|
口③口口 |②---|
口口口口 |③---|
26
口口口③ |①---|
口口口② |--②-|
口口①口 |----|
口口口口 |③---|
27
口①口口 |----|
②口口口 |①---|
③口口口 |②---|
口口口口 |③---|
28
口口口口 |①---|
口口口口 |----|
口口口口 |②---|
口①②② |----|
29
口口口口 |①---|
口口口口 |----|
口口②② |②---|
①①口口 |----|
30
口口口口 |①---|
口口②② |----|
①①口口 |②---|
口口口口 |----|
31
口②②口 |①---|
①①口口 |----|
口口口口 |②---|
口口口口 |----|
32
口口口口 |----|
①口口口 |----|
口口口口 |①---|
口口口口 |----|
33
口口口口 |----|
口②①口 |①---|
口口③口 |②---|
口口口口 |③---|
34
③口口口 |①---|
②口口口 |--②-|
口①口口 |----|
口口口口 |③---|
35
口口口口 |----|
口口口口 |----|
口口口口 |----|
口口口口 |----|
36
口口口口 |----|
口口口① |----|
口口口口 |①---|
口口口口 |----|
37
口口口口 |----|
口①②口 |①---|
口③口口 |②---|
口口口口 |③---|
38
口口口③ |①---|
口口口② |--②-|
口口①口 |----|
口口口口 |③---|
39
口①口口 |----|
②口口口 |①---|
③口口口 |②---|
口口口口 |③---|
40
口口口口 |①---|
口口口口 |----|
口口口口 |②---|
口①②② |----|
41
口口口口 |①---|
口口口口 |----|
口②②口 |②---|
①①口口 |----|
42
①口口① |①---|
口口口口 |----|
口口口口 |②---|
口②②口 |----|
43
③口口③ |①---|
②口口② |--②-|
①口口① |----|
口口口口 |③---|
44
口口口口 |①---|
口①①口 |--②-|
口③③口 |----|
②口口② |③---|
45
口②②口 |--①-|
①口口① |----|
口口口口 |②---|
口口口口 |----|
46
①口口口 |----|
口口口② |①---|
③口口口 |②---|
口口口口 |③---|
47
口口口口 |①---|
口口口口 |----|
口口口口 |----|
②口口① |②---|
48
口口口口 |①---|
口口口④ |②---|
口②③口 |③---|
口①口口 |--④-|
49
口口口① |----|
口口口口 |①---|
口口口口 |----|
口口口口 |----|
50
口口口口 |----|
口口口口 |----|
口口口口 |----|
口口口① |①---|
51
口口口口 |①---|
④口口口 |②---|
口③②口 |③---|
口口①口 |--④-|
52
①口口口 |----|
口口口口 |①---|
口口口口 |----|
口口口口 |----|
53
口口①① |----|
②②口口 |--①-|
口口口口 |----|
口口口口 |②---|
54
口口口口 |----|
口口口口 |①---|
口口口口 |②---|
③②①口 |③---|
55
①①口口 |----|
口口②② |--①-|
口口口口 |----|
口口口口 |②---|
56
口口口口 |----|
口口口口 |①---|
口口口口 |②---|
口①②③ |③---|
57
口口口口 |①---|
口口②口 |----|
口①口口 |----|
口口口口 |②---|
58
口①口口 |①---|
口②口口 |--②-|
口③口口 |----|
口口口口 |③---|
59
口口②② |①---|
口③口口 |--②-|
口口口口 |----|
①口口口 |③---|
60
口口口口 |①---|
口口①口 |--②-|
口③口口 |----|
口②口口 |③---|
61
①口口② |①---|
口口口口 |----|
口口口口 |----|
口口口口 |②---|
62
口口①口 |①---|
口口②口 |②---|
口口③口 |③---|
口口④口 |④---|
63
口口口口 |①---|
口③口口 |--②-|
②口口口 |----|
口①口口 |③---|
64
口口口口 |①---|
③口①口 |----|
口②口口 |②---|
口口口口 |③---|
65
口①口口 |①---|
口口口② |----|
口口口口 |----|
口口口口 |②---|
66
口口口口 |①---|
口口①口 |②---|
口③②口 |③---|
口④口口 |④---|
67
口③口口 |①---|
②口口口 |--②-|
口口口口 |----|
①口口口 |③---|
68
口口口① |--①-|
口口口口 |----|
口口②口 |②---|
口口口口 |----|
69
口口口口 |①---|
①口口① |----|
口口口口 |----|
口口口口 |----|
70
口口口口 |①---|
口①①口 |----|
口①①口 |②---|
②口口② |----|
71
①口口① |①---|
口口口口 |----|
口②②口 |②---|
口口口口 |----|
72
口③②口 |①---|
口①④口 |②---|
口口口口 |③---|
口口口口 |④---|
73
口口口口 |①---|
口口口口 |----|
口①口③ |②---|
口口口② |③---|
74
口③②口 |①---|
④口口① |②---|
口口口口 |③---|
口口口口 |④---|
75
口口口口 |①---|
口口口口 |----|
①口③口 |②---|
口②口口 |③---|
76
口口口口 |①---|
口①口口 |----|
口③口口 |②---|
口口②口 |③---|
77
口口口口 |①---|
口口①口 |----|
口口③口 |②---|
口②口口 |③---|
78
①口口① |①---|
口口口口 |----|
口口口口 |----|
口口口口 |----|
79
口口口口 |①---|
口①①口 |----|
③口口③ |②---|
②口口② |③---|
80
口②口口 |①---|
①口③① |②---|
口④口口 |③---|
口口口口 |④---|
81
口口口口 |①---|
口口口口 |----|
③口口口 |②---|
口②①口 |③---|
82
口②③口 |①---|
①口口④ |②---|
口口口口 |③---|
口口口口 |④---|
83
口口口口 |①---|
口口口口 |----|
口口②① |----|
口口口口 |②---|
84
①口口① |①---|
②口口② |--②-|
③口口③ |----|
口口口口 |③---|
85
口口口口 |①---|
口③③口 |--②-|
口②②口 |----|
口①①口 |③---|
86
①口口① |①---|
口口口口 |----|
口口口口 |----|
口口口口 |----|
87
口口口口 |----|
口①口口 |----|
口①口口 |----|
口口口口 |--①-|
88
口口口口 |--①-|
口口①口 |----|
口口①口 |----|
口口口口 |----|
89
口口口口 |----|
口口口口 |----|
口口口口 |----|
口口口口 |----|
90
口口口口 |①---|
口口口口 |----|
口口口口 |----|
①口口① |----|
91
口口口口 |----|
口①②口 |----|
口①②口 |--①-|
口口口口 |--②-|
92
口口口口 |----|
口口口口 |①---|
口口口口 |----|
①口口① |----|
93
口口口口 |----|
口口口口 |----|
口口口口 |----|
口口口口 |----|
94
口口口口 |①---|
口③③口 |----|
口②②口 |--②-|
①口口① |--③-|
95
口①①口 |--①-|
口口口口 |----|
口③③口 |②---|
②口口② |--③-|
96
口②②口 |--①-|
口①①口 |--②-|
口口口口 |----|
③口口③ |③---|
97
口③③口 |--①-|
口②②口 |--②-|
口①①口 |--③-|
口口口口 |----|
98
口口口口 |①---|
①口口① |----|
①口口① |----|
口口口口 |----|
99
①①②② |--①-|
③③④④ |--②-|
口口口口 |--③-|
口口口口 |--④-|
100
口口口口 |--①-|
口口口口 |--②-|
①①②② |--③-|
③③口口 |----|
101
①口口口 |①---|
口口口口 |----|
口口口口 |----|
口口口口 |----|
102
口口口口 |①---|
口①口口 |----|
口口口口 |----|
口口口口 |----|
103
口口口口 |①---|
口口口口 |----|
口口①口 |----|
口口口口 |----|
104
口口口口 |①---|
口口口口 |----|
口口口口 |----|
口口口① |----|

不確定度: 0

最終更新:2017年07月30日 19:10