星宿る空の下で
Akhuta

ADVANCED

Level: 7
BPM: 204
Notes: 547

1
口口口口 |----|
口口口口 |----|
口口口口 |----|
口口口口 |----|
2
①②②① |①---|
口⑤⑤口 |②-③-|
口④④口 |--④-|
口③③口 |--⑤-|
3
②口口② |--①-|
口口口口 |②---|
口口口口 |----|
①口口① |----|
4
口口口口 |----|
口口口口 |----|
口口口口 |----|
口口口口 |----|
5
①②②① |①---|
口⑤⑤口 |②-③-|
口④④口 |--④-|
口③③口 |--⑤-|
6
②口口② |--①-|
口口口口 |②---|
口口口口 |----|
①口口① |----|
7
口口口口 |----|
口口口口 |----|
口口口口 |----|
口口口口 |----|
8
口①口口 |①---|
口口②口 |--②-|
①口口③ |----|
口②③口 |③---|
9
口口口口 |----|
口①口口 |①---|
口口②口 |②---|
口③口口 |③---|
10
口口①口 |①---|
口②口口 |--②-|
③口口① |----|
口③②口 |③---|
11
口⑦口口 |--①-|
③口⑥口 |②-③-|
口⑤口② |④-⑤-|
①口④口 |⑥-⑦-|
12
口口①口 |①---|
口②口① |--②-|
③口②口 |----|
口③口口 |③---|
13
①①口口 |----|
口口口口 |①---|
口口②② |②---|
③③口口 |③---|
14
口口口口 |①---|
口口①① |----|
口②口口 |----|
口②口口 |②---|
15
口口口口 |①---|
②口口② |----|
口口①口 |②---|
口口①口 |----|
16
口①口⑥ |①-②-|
口③⑧口 |③-④-|
口⑦口④ |⑤-⑥-|
⑤口②口 |⑦-⑧-|
17
③⑤口⑧ |①-②-|
①口口口 |③-④-|
口口②口 |⑤-⑥-|
⑦口⑥④ |⑦-⑧-|
18
口口⑥口 |①-②-|
①③口⑧ |③-④-|
口⑦②④ |⑤-⑥-|
口⑤口口 |⑦-⑧-|
19
⑤口口⑧ |①-②-|
③口⑥口 |③-④-|
①口④口 |⑤-⑥-|
口⑦口② |⑦-⑧-|
20
口口口口 |①---|
口口口口 |----|
①①口口 |②---|
口口②② |----|
21
口口②③ |----|
口口③① |①---|
口口①② |②---|
口口口口 |③---|
22
①①口口 |①---|
②②口口 |--②-|
③③口口 |----|
口口口口 |③---|
23
口口口口 |----|
口口口口 |----|
口口口口 |----|
口口口口 |----|
24
口口口口 |----|
口口口口 |----|
口口口口 |①---|
①①口口 |----|
25
③②口口 |----|
①③口口 |①---|
②①口口 |②---|
口口口口 |③---|
26
口口①① |①---|
口口②② |--②-|
口口③③ |----|
口口口口 |③---|
27
口②③口 |----|
②口口③ |①---|
①口口口 |②---|
口①口口 |③---|
28
口口口口 |①---|
口口口口 |----|
口口口① |②---|
②口①② |----|
29
口口口口 |①---|
口②①口 |----|
口①②口 |②---|
口口口口 |----|
30
口口口口 |①---|
②②口① |----|
①口②② |②---|
口口口口 |----|
31
②②①① |①---|
口口口口 |----|
口口口口 |②---|
①①②② |----|
32
口口口口 |----|
口口口口 |----|
口口口口 |①---|
①①口口 |----|
33
③②口口 |----|
①③口口 |①---|
②①口口 |②---|
口口口口 |③---|
34
口口①① |①---|
口口②② |--②-|
口口③③ |----|
口口口口 |③---|
35
口口口口 |----|
口口口口 |----|
口口口口 |----|
口口口口 |----|
36
口口口口 |----|
口口口口 |----|
口口口口 |①---|
口口①① |----|
37
口口②③ |----|
口口③① |①---|
口口①② |②---|
口口口口 |③---|
38
①①口口 |①---|
②②口口 |--②-|
③③口口 |----|
口口口口 |③---|
39
口③②① |----|
口③②① |①---|
口口口口 |②---|
口口口口 |③---|
40
①口口口 |①---|
①口口口 |----|
口口口口 |②---|
②口口② |----|
41
口口口口 |①---|
口②①口 |----|
口①②口 |②---|
口口口口 |----|
42
①口口① |①---|
①口②① |----|
口②口口 |②---|
口口口口 |----|
43
③③口口 |①---|
口①口口 |--②-|
②口①② |----|
口口口口 |③---|
44
口口①① |①---|
口口口口 |--②-|
③口口③ |----|
②口口② |③---|
45
②②②② |--①-|
①口口① |----|
口口口口 |②---|
口口口口 |----|
46
口口口口 |----|
口①②口 |①---|
①③口② |②---|
③口口口 |③---|
47
口②口口 |①---|
口④③口 |----|
口口①口 |--②-|
口口口① |③-④-|
48
④口口口 |①-②-|
⑤口口口 |③---|
口②①口 |④---|
口口③口 |--⑤-|
49
口口口口 |----|
口口口口 |①---|
①口口口 |----|
口口口口 |----|
50
口口①口 |----|
口②③口 |----|
口口口口 |--①-|
口口口口 |②-③-|
51
口口口④ |①-②-|
口口口⑤ |③---|
口①②口 |④---|
口③口口 |--⑤-|
52
口口口口 |----|
口口口口 |①---|
口口口① |----|
口口口口 |----|
53
口口②口 |----|
口口口② |--①-|
①口口口 |----|
口①口口 |②---|
54
口①口口 |----|
①③②口 |①---|
③口口② |②---|
口口口口 |③---|
55
口②口口 |----|
②口口① |--①-|
口口①口 |----|
口口口口 |②---|
56
口口口口 |----|
口②①口 |①---|
②口③① |②---|
口口口③ |③---|
57
口口口口 |①---|
口口口口 |----|
口①口口 |----|
①②②口 |②---|
58
②口口① |①---|
①口③② |--②-|
口③口口 |----|
口口口口 |③---|
59
口②②口 |①---|
口①口口 |--②-|
口口①口 |----|
③口口③ |③---|
60
①口口① |①---|
口口③口 |--②-|
口③口口 |----|
口②②口 |③---|
61
口口口口 |①---|
②①口口 |----|
口口①③ |--②-|
④口口口 |③-④-|
62
口口口④ |①---|
口口口② |②---|
口口③口 |③---|
口口①口 |④---|
63
口口口口 |①---|
③③口口 |--②-|
②②口口 |----|
①①口口 |③---|
64
口口③② |①---|
口口③② |----|
口口口口 |②---|
口口①① |③---|
65
口①口口 |①---|
口①口② |----|
③口口口 |--②-|
口口口④ |③-④-|
66
④口口口 |①---|
②口口口 |②---|
口③口口 |③---|
口①口口 |④---|
67
口口口口 |①---|
口口③③ |--②-|
口口②② |----|
口口①① |③---|
68
②②口口 |--①-|
口口口口 |----|
①①口口 |②---|
口口口口 |----|
69
口口口口 |①---|
口口口口 |----|
口口口口 |----|
口①①口 |----|
70
口口口口 |①---|
口①①口 |----|
口①①口 |②---|
②口口② |----|
71
①①①① |①---|
口①①口 |----|
口口口口 |②---|
口②②口 |----|
72
口口口④ |①---|
①②⑤① |②-③-|
口⑥③口 |--④-|
口口口口 |⑤-⑥-|
73
口口口口 |----|
口②口口 |--①-|
口口③① |--②-|
④口口口 |③-④-|
74
口④⑤口 |①-②-|
④口②⑤ |--③-|
口①口口 |--④-|
口口③③ |--⑤-|
75
①口口口 |----|
口①口口 |--①-|
口口口口 |--②-|
口④③② |③-④-|
76
口口口② |①---|
口口②口 |--②-|
③④⑤口 |--③-|
①口口口 |④-⑤-|
77
口②②口 |①---|
口口口口 |--②-|
口口口① |--③-|
口④⑤③ |④-⑤-|
78
①口口② |①-②-|
④③③⑤ |③---|
①⑥⑥② |④-⑤-|
④口口⑤ |⑥---|
79
①⑤⑤② |①-②-|
口③③口 |③---|
①口口② |④---|
口④④口 |⑤---|
80
④口口口 |①---|
①⑤③① |②-③-|
口②⑥口 |--④-|
①口口① |⑤-⑥-|
81
口口口口 |----|
口口②口 |--①-|
①③口口 |--②-|
口口口④ |③-④-|
82
⑤④③⑤ |①-②-|
④②口③ |--③-|
口口①口 |--④-|
口口口口 |--⑤-|
83
口口口口 |----|
口①口口 |----|
口口②口 |--①-|
口口口③ |②-③-|
84
①①口口 |①---|
口口口口 |--②-|
②②口口 |----|
③③口口 |③---|
85
口口①① |①---|
口口口口 |--②-|
口口②② |----|
口口③③ |③---|
86
口口口口 |①---|
①口口① |----|
口口口口 |----|
②口口口 |--②-|
87
⑥口口⑦ |①-②-|
④⑧口⑤ |③-④-|
②⑧口③ |⑤-⑥-|
口口口① |⑦-⑧-|
88
口口口口 |--①-|
口口①② |----|
③口①④ |--②-|
口口口口 |③-④-|
89
口口口口 |①-②-|
口口口口 |③---|
口口口口 |----|
①③口② |----|
90
口口口口 |①-②-|
⑤口口口 |③-④-|
③口④⑧ |⑤-⑥-|
①⑦②⑥ |⑦-⑧-|
91
口口口④ |①-②-|
口③口② |③-④-|
⑦①口⑧ |⑤-⑥-|
⑤口口⑥ |⑦-⑧-|
92
口口口口 |①-②-|
口⑤⑥口 |③-④-|
⑦③④⑧ |⑤-⑥-|
口①②口 |⑦-⑧-|
93
③⑤口④ |①-②-|
①口口② |③-④-|
口口口口 |⑤---|
口口口口 |----|
94
口口口⑤ |①---|
口③②口 |②-③-|
口口口④ |--④-|
①口口口 |--⑤-|
95
口口口口 |--①-|
口口口口 |②---|
口①②口 |③-④-|
⑤③④口 |--⑤-|
96
口口口口 |--①-|
①③②口 |--②-|
口⑤④口 |③---|
口口口口 |④-⑤-|
97
口口口② |--①-|
口③④口 |--②-|
口口口口 |--③-|
口口口① |④---|
98
⑤口口⑤ |①-②-|
④口口④ |--③-|
③口口③ |--④-|
①②②口 |--⑤-|
99
口①口口 |--①-|
⑤口②口 |②-③-|
③⑦口⑥ |④-⑤-|
口口口④ |⑥-⑦-|
100
②口口③ |①-②-|
口⑥⑦口 |③-④-|
⑥口①⑦ |⑤-⑥-|
④④⑤⑤ |⑦---|
101
口口口口 |①---|
①口口口 |----|
口②口口 |②---|
口口口口 |----|
102
口口口口 |①---|
口口①口 |----|
口口口② |②---|
口口口口 |----|
103
口口口口 |①---|
口口口① |----|
口口②口 |②---|
口口口口 |----|
104
口口口口 |①---|
口①口口 |----|
②口口口 |②---|
口口口口 |----|

不確定度: 0

最終更新:2017年07月30日 19:10