イ号零型 [2]
あさき

BASIC

Level: 3
BPM: 170
Notes: 202

1
口口口口 |----|
口口口口 |----|
口口口口 |----|
口口口口 |----|
2
口口口口 |----|
口口口口 |----|
口口口口 |----|
口口口口 |----|
3
口口 |①---|
口①口口 |----|
口口口口 |②---|
口口口口 |----|
4
口口口 |----|
口口口口 |①---|
口口口口 |----|
口口口口 |----|
5
口口口口 |①---|
口口①口 |----|
口口 |②---|
口口口口 |----|
6
口口口口 |----|
口口口口 |①---|
口口口 |----|
口口口口 |----|
7
|①---|
口①①口 |----|
口口口口 |②---|
口口口口 |----|
8
口口 |①---|
口②口口 |----|
口口口口 |----|
口口口口 |②---|
9
口口②口 |①---|
口口口口 |----|
口①口口 |②---|
口口口口 |----|
10
口口口口 |①---|
口口口口 |----|

口口口口

口口口口
口口口口
口口口 |----|
口口口口 |②---|
11
|①---|
口口口口 |----|
口口口口 |----|
口口口口 |----|
12
口口口 |----|
口口①① |----|
口口②② |①---|
口口口口 |②---|
13
口口 |①---|
口口口口 |----|
口口口口 |----|
口口口口 |----|
14
口口口 |①---|
口口 |----|
口口口口
口口口口

口口口口
口口口
口口②② |②---|
口口③③ |③---|
15
口口口口 |①---|
口口 |----|
口口口口 |----|
口口口口 |----|
16
口口口口 |①---|
口口口 |----|
口口
口口口口

口口②②
口口③③
口口口口 |②---|
口口口口 |③---|
17
口口口口 |①---|
口口口口 |----|
|----|
口口口口 |----|
18
口口口口 |①---|
口口口口 |----|
口口口 |----|
口口 |----|
19
口口口口 |①---|
口口口口 |----|
口口口口 |----|
|----|
20
口口口口 |①---|
口口口口 |----|
口口
口口口

口口口口
口口口口
②口 |----|
口口口口 |②---|
21
口口 |①---|
口口①口 |②---|
口口口口 |----|
口口口口 |----|
22
口①口 |①---|
②口口口 |----|
口口口口 |②---|
口口口口 |----|
23
口口口口 |①---|
口口口口 |----|
口口
口口口口

口口口口
口口口口
口② |----|
口口口口 |②---|
24
口口口口 |①---|
口口②① |----|
口口口口 |②---|
口口口口 |----|
25
口①口口 |①---|
口口口口
口口口口
口口口口


口口口口 |②---|
口口口口 |----|
口口口口 |----|
26
口口口口 |----|
口口口口 |----|
口口口口 |----|
口口口口 |----|
27
口口① |①---|
口②口口 |----|
口③口口 |--②-|
口④口口 |③-④-|
28
口口口口 |----|
口口③口 |----|
口口②口 |①-②-|
口口①口 |③---|
29
口①②口 |----|
口口口口 |----|
口口口口 |--①-|
口口口口 |--②-|
30
口口口口 |----|
口口①口 |----|
口口口口 |----|
口口口口 |①---|
31
口口口口 |①---|
口①口口 |----|
口口口口 |----|
口口口口 |----|
32
口口口口 |----|
口口口口 |----|
口①口口 |----|
口口口口 |①---|
33
口口口口 |①---|
口口口口 |----|
口口①口 |----|
口口口口 |----|
34
口口口口 |①---|
口口口口 |----|
口口口口 |----|
①口②① |②---|
35
②口口② |①---|
口口口口 |--②-|
口口口口 |----|
口①口口 |----|
36
口口口口 |----|
口口口口 |----|
口①口口 |----|
口口口口 |①---|
37
②口口② |①---|
口口口口 |--②-|
口口①口 |----|
口口口口 |----|
38
口口口口 |----|
口口①口 |----|
口口口口 |----|
口口口口 |①---|
39
②口口② |①---|
口①口口 |--②-|
口口口口 |----|
口口口口 |----|
40
口口口口 |----|
口口口口 |----|
口口口口 |----|
口口口口 |----|
41
口口口口 |①---|
口口口口 |----|
口①①口 |----|
口口口口 |----|
42
口口 |①---|
口①①口 |----|
口口口口 |②---|
口口口口 |----|
43
|①---|
口口口口 |----|
口口口口
口口口口

口②口
口口口口
口口口口 |----|
口口口口 |②---|
44
口口口口 |①---|
口①口口 |②---|
口口
口口口口

口口口口
口口口口
③口 |----|
口口口口 |③---|
45
口口口口 |①---|
口口 |----|
口口口口
口口口口

口口口口
②口
③口口口 |②---|
口口口口 |③---|
46
口②②口 |①---|
口口口口 |----|
口口口口 |②---|
①口口口 |----|
47
口口口口 |①---|
口口①口 |----|
口②口口 |②---|
口口口口 |----|
48
口口口① |①---|
口口口② |②---|
口口口③ |③---|
口口口④ |④---|
49
口口口口 |①---|
口口口 |----|
口口口 |----|
口口口 |----|
50
口口口口 |①---|
口②②口 |----|
口口口口 |②---|
口①口 |----|
51
①口口② |①---|
口口③口 |②---|
口口口口 |--③-|
口口口口 |----|
52
口②③口 |①---|
口口口口 |----|
口①口口 |②---|
口口口口 |③---|
53
口③口口 |①---|
口口①口 |②---|
口口②口 |--③-|
口口口口 |----|
54
口口口口 |①---|
①口口口 |②---|
口口 |----|
口口口口 |----|
55
口②②口 |①---|
口口口口 |----|
口口① |②---|
口口口口 |----|
56
①口口口 |①---|
②口口口 |②---|
③口口口 |③---|
④口口口 |④---|
57
口口口口 |①---|
口口口口 |----|
口口
口口

口口口口
口口
口口 |②---|
口口 |----|
58
口口口口 |①---|
口口 |----|

口口口口

口口

口口口口 |②---|
口口口口 |----|
59
口① |①---|
口口口口 |②---|
口口③口 |--③-|
口口口② |----|
60
口口③口 |①---|
②①口口 |②---|
口口口口 |----|
口口口口 |③---|
61
口口口口 |①--②|
口①④口 |--③-|
口②⑤口 |④--⑤|
口③⑥口 |--⑥-|
62
①②②① |①---|
口口口口 |----|
口口口口 |②---|
口口口口 |----|
63
口口口口 |①---|
口口①② |----|
口口口口 |----|
口口口口 |②---|
64
口口口口 |①---|
口口口口 |----|
②口口① |②---|
口口口口 |----|
65
口口口口 |①---|
|----|
口口口口 |----|
口口口口 |----|
66
口 |①---|
口口口 |----|
口口口口 |----|
口口口口 |----|
67
口口① |①---|
口口口口 |----|
口②③④ |--②-|
口口口口 |③-④-|
68
口口口口 |----|
口口口口 |----|
口口口口 |----|
口口口口 |----|
69
口①①口 |①---|
口口口口 |----|
④③②口 |--②-|
口口口口 |③-④-|
70
口口口口 |----|
口口口口 |----|
口口口口 |----|
口口口口 |----|
71
口①①口 |①---|
口口口口 |----|
口口口口 |----|
口口口口 |----|
72
口口口口 |--①-|
①口口口 |②-③-|
②口口口 |----|
③口口口 |----|
73
口①①口 |①---|
口口口口 |----|
口口口口 |----|
口口口口 |----|
74
口口口口 |--①-|
口④④① |②-③-|
口口口② |--④-|
口口口③ |----|
75
①口口 |①---|
口口口 |②---|
口口口 |----|
口口口 |----|
76
口口口 |----|
口口口口 |----|
口口口口 |----|
口口口口 |--①-|

不確定度: 0

最終更新:2017年07月27日 17:52