ロプノールの商隊
Akhuta

BASIC

Level: 4
BPM: 186
Notes: 280

1
口口口口 |----|
口口口口 |----|
口口口口 |----|
口口口口 |----|
2
口①口口 |①---|
口口②口 |--②-|
口③口口 |----|
口口口口 |③---|
3
口口口口 |--①-|
口②口口 |----|
口③口口 |②---|
口口①口 |③---|
4
口口口口 |①---|
口口口口 |----|
口口口口 |----|
口①①口 |----|
5
口口口口 |----|
口口口口 |----|
口口口口 |----|
口口口口 |----|
6
口口口口 |----|
口口口口 |----|
口口口口 |----|
口口口口 |----|
7
口口①口 |①---|
口②口口 |--②-|
口口③口 |----|
口口口口 |③---|
8
口口口口 |--①-|
口口口口 |----|
②口口② |②---|
口①口口 |----|
9
②口口② |①---|
①口口① |----|
口口口口 |②---|
口口口口 |----|
10
口口口口 |①---|
口口①口 |----|
口②口口 |②---|
口口口口 |----|
11
口口口口 |①---|
口②口口 |----|
口口①口 |②---|
口口口口 |----|
12
口口口口 |①---|
口口①口 |----|
口②口口 |②---|
口口口口 |----|
13
口口口口 |①---|
口②口口 |----|
口口①口 |②---|
口口口口 |----|
14
①③③① |①---|
口口口口 |--②-|
口口口口 |----|
口②②口 |③---|
15
口口口口 |--①-|
口②③口 |----|
口③②口 |②---|
①口口① |③---|
16
①③③① |①---|
口口口口 |--②-|
口口口口 |----|
口②②口 |③---|
17
口口口口 |--①-|
口③②口 |----|
口②③口 |②---|
①口口① |③---|
18
①口口① |①---|
口口口口 |----|
口口口口 |----|
口口口口 |----|
19
口口口口 |①---|
口口②① |----|
口口口口 |②---|
口口口口 |----|
20
口③口口 |①---|
口②口口 |②---|
口①口口 |③---|
口口口口 |----|
21
口口口口 |①---|
口口口口 |----|
口口②① |②---|
口口口口 |----|
22
口④口口 |①---|
口③口口 |②---|
口②口口 |③---|
口①口口 |④---|
23
口口口口 |①---|
口口②① |----|
口口口口 |②---|
口口口口 |----|
24
口③口口 |①---|
口②口口 |②---|
口①口口 |③---|
口口口口 |----|
25
口口口口 |①---|
口口口口 |----|
口口②① |②---|
口口口口 |----|
26
口④口口 |①---|
口③口口 |②---|
口②口口 |③---|
口①口口 |④---|
27
口口口口 |①---|
口口②① |----|
口口口口 |②---|
口口口口 |----|
28
口③口口 |①---|
口②口口 |②---|
口①口口 |③---|
口口口口 |----|
29
口口口口 |①---|
口口口口 |----|
口口②① |②---|
口口口口 |----|
30
口④口口 |①---|
口③口口 |②---|
口②口口 |③---|
口①口口 |④---|
31
口口口口 |①---|
口口②① |----|
口口口口 |②---|
口口口口 |----|
32
口③口口 |①---|
口②口口 |②---|
口①口口 |③---|
口口口口 |----|
33
口口口口 |①---|
口口口口 |----|
口口②① |②---|
口口口口 |----|
34
口④口口 |①---|
口③口口 |②---|
口②口口 |③---|
口①口口 |④---|
35
口口口口 |①---|
口口②口 |----|
口口口① |②---|
口口口口 |----|
36
口口口口 |①---|
②口口口 |----|
口①口口 |②---|
口口口口 |----|
37
口口口口 |①---|
口②口口 |----|
①口口口 |②---|
口口口口 |----|
38
口口口口 |①---|
口口口② |----|
口口①口 |②---|
口口口口 |----|
39
口口口① |①---|
口口②口 |----|
口口口口 |②---|
口口口口 |----|
40
口①口口 |①---|
②口口口 |----|
口口口口 |②---|
口口口口 |----|
41
①口口口 |①---|
口②口口 |----|
口口口口 |②---|
口口口口 |----|
42
口口①口 |①---|
口口口② |----|
口口口口 |②---|
口口口口 |----|
43
③口口③ |①---|
口②口口 |----|
口口①口 |②---|
口口口口 |--③-|
44
口口口口 |----|
①口口① |①---|
②口口② |--②-|
口口口口 |----|
45
口口口口 |①---|
口口①口 |----|
口口②口 |②---|
口口口口 |----|
46
口口②② |①---|
口口口口 |--②-|
口口口口 |----|
口口①口 |----|
47
口口口口 |①---|
口①口口 |----|
口②口口 |②---|
口口口口 |----|
48
②②口口 |①---|
口口口口 |--②-|
口口口口 |----|
口①口口 |----|
49
口口口口 |①---|
口口①口 |----|
口口②口 |②---|
口口口口 |----|
50
口口②② |①---|
口口口口 |--②-|
口口口口 |----|
口口①口 |----|
51
口口口口 |①---|
口①口口 |----|
口②口口 |②---|
口口口口 |----|
52
②②口口 |①---|
口口口口 |--②-|
口口口口 |----|
口①口口 |----|
53
口口口口 |①---|
④口口④ |②---|
②③③② |③---|
口①①口 |④---|
54
口①①口 |①---|
口②②口 |②---|
口③③口 |③---|
口口口口 |----|
55
口口口① |①---|
口口②口 |----|
口口口口 |②---|
口口口口 |----|
56
①口口口 |①---|
口②口口 |----|
口口口口 |②---|
口口口口 |----|
57
口口口口 |①---|
口口口口 |②---|
口口口口 |③---|
③④②① |④---|
58
口口口③ |①---|
口口口② |②---|
口口口① |③---|
口口口口 |----|
59
口口口口 |①---|
口口口口 |②---|
口口口口 |③---|
①②④③ |④---|
60
③口口口 |①---|
②口口口 |②---|
①口口口 |③---|
口口口口 |----|
61
口口口口 |①---|
口口口口 |②---|
口口口口 |③---|
③④②① |④---|
62
口口口③ |①---|
口口口② |②---|
口口口① |③---|
口口口口 |----|
63
口口口口 |①---|
口②①口 |②---|
口④③口 |③---|
口口口口 |④---|
64
口口口口 |①---|
③口口③ |②---|
口口口口 |③---|
口②①口 |----|
65
口口口口 |①---|
口口口口 |②---|
口口口口 |③---|
③④②① |④---|
66
口口口③ |①---|
口④④② |②---|
口口口① |③---|
口口口口 |④---|
67
口口口口 |①---|
口口口口 |②---|
口口口口 |③---|
①②④③ |④---|
68
③口口口 |①---|
②④④口 |②---|
①口口口 |③---|
口口口口 |④---|
69
口口口口 |①---|
口口口口 |②---|
口口口口 |③---|
③④②① |④---|
70
口口口③ |①---|
口④④② |②---|
口口口① |③---|
口口口口 |④---|
71
③①①③ |①---|
口口口口 |--②-|
口口口口 |----|
②口口② |③---|
72
口口口口 |①---②-|
口口③口 |--③---|
口②口口
口口①口

口④口口
口口口口
口口口口 |④---|
口⑤⑤口 |--⑤---|
73
①口口① |①---|
口口口口 |----|
口②②口 |②---|
口口口口 |----|
74
口口口口 |①---|
④③②① |②---|
口口口口 |③---|
口口口口 |④---|
75
口口口口 |①---|
口口口口 |②---|
①②③④ |③---|
口口口口 |④---|
76
口口口口 |①---|
口①口口 |②---|
口②口口 |③---|
口③口口 |----|
77
口口口口 |①---|
①口口① |----|
口③②口 |②---|
口口口口 |③---|
78
口口口口 |----|
③②①口 |①---|
口口口口 |②---|
口口口口 |③---|
79
口口口口 |①---|
口口口口 |②---|
①②③④ |③---|
口口口口 |④---|
80
口口口口 |①---|
口口②口 |----|
口③口口 |②---|
口①①口 |③---|
81
①③③① |①---|
口口口口 |--②-|
口口口口 |----|
口②②口 |③---|
82
口口口口 |--①-|
口②③口 |----|
口③②口 |②---|
①口口① |③---|
83
①③③① |①---|
口口口口 |--②-|
口口口口 |----|
口②②口 |③---|
84
口口口口 |--①-|
口③②口 |----|
口②③口 |②---|
①口口① |③---|

不確定度: 0

最終更新:2017年06月21日 21:21