ロプノールの商隊
Akhuta

ADVANCED

Level: 7
BPM: 186
Notes: 514

1
口口口口 |----|
口口口口 |----|
口口口口 |----|
口口口口 |----|
2
口口①口 |①---|
口②口口 |--②-|
口口③口 |----|
口口口口 |③---|
3
口口口口 |--①-|
口口②口 |----|
口口③口 |②---|
口①口口 |③---|
4
口口口口 |①---|
口口口口 |----|
口口口口 |----|
口①①口 |----|
5
口口口口 |----|
口口口口 |----|
口口口口 |----|
口口口口 |----|
6
口口口口 |----|
口口口口 |----|
口口口口 |----|
口口口口 |----|
7
口①口口 |①---|
口口②口 |--②-|
口③口口 |----|
口口口口 |③---|
8
口口口口 |--①-|
口口口口 |----|
④③②口 |②---③-|
口口①口 |--④---|
9
口⑤④口 |①---②-|
口⑦⑥口 |--③---|
口⑨⑧口 |④-⑤-⑥-|
口①②③ |⑦-⑧-⑨-|
10
口口口口 |①---|
①口口① |----|
口口口口 |----|
口口口口 |----|
11
口口口口 |----|
⑤口口④ |①---|
③口口② |②-③-|
口①①口 |④-⑤-|
12
口①①口 |①---|
口口口口 |②-③-|
口⑦⑥⑤ |④-⑤-|
口④③② |⑥-⑦-|
13
口⑥⑤④ |①-②-|
口③②① |③-④-|
口口口口 |⑤-⑥-|
口⑦⑦口 |⑦---|
14
口口⑥口 |①-②-|
口⑦⑤① |③-④-|
口⑧④② |⑤-⑥-|
口口口③ |⑦-⑧-|
15
④⑧⑦口 |①-②-|
③⑥⑤口 |③-④-|
②口口口 |⑤-⑥-|
口①口口 |⑦-⑧-|
16
口口⑥口 |①-②-|
口⑦⑤① |③-④-|
口⑧④② |⑤-⑥-|
口口口③ |⑦-⑧-|
17
④⑧⑦口 |①-②-|
③⑥⑤口 |③-④-|
②口口口 |⑤-⑥-|
口①口口 |⑦-⑧-|
18
口口口口 |①---|
口口口口 |----|
口口口口 |----|
①①①① |----|
19
口口④口 |①---|
口③②口 |--②-|
口①①口 |③---|
口口口口 |④---|
20
⑥口口⑤ |①-②-|
口口口口 |③-④-|
④③②① |⑤---|
口口口口 |⑥---|
21
口口口口 |①---|
口①①口 |--②-|
口③②口 |③---|
口口④口 |④---|
22
⑤⑥⑦⑧ |①-②-|
④③②① |③-④-|
口口口口 |⑤-⑥-|
口口口口 |⑦-⑧-|
23
口口④口 |①---|
口③②口 |--②-|
口①①口 |③---|
口口口口 |④---|
24
⑥口口⑤ |①-②-|
口口口口 |③-④-|
④③②① |⑤---|
口口口口 |⑥---|
25
口口口口 |①---|
口①①口 |②-③-|
口④⑤⑥ |--④-|
口③②口 |⑤-⑥-|
26
⑤⑥⑦⑧ |①-②-|
④③②① |③-④-|
口口口口 |⑤-⑥-|
口口口口 |⑦-⑧-|
27
口④口口 |①---|
口②③口 |--②-|
口①①口 |③---|
口口口口 |④---|
28
⑤口口⑥ |①-②-|
口口口口 |③-④-|
①②③④ |⑤---|
口口口口 |⑥---|
29
口口口口 |①---|
口①①口 |--②-|
口②③口 |③---|
口④口口 |④---|
30
⑧⑦⑥⑤ |①-②-|
①②③④ |③-④-|
口口口口 |⑤-⑥-|
口口口口 |⑦-⑧-|
31
口④口口 |①---|
口②③口 |--②-|
口①①口 |③---|
口口口口 |④---|
32
⑤口口⑥ |①-②-|
口口口口 |③-④-|
①②③④ |⑤---|
口口口口 |⑥---|
33
口口口口 |①---|
④⑤⑥⑦ |②-③-|
口②③口 |④-⑤-|
口①①口 |⑥-⑦-|
34
④③②① |①-②-|
⑥口口⑥ |③-④-|
口⑤⑤口 |⑤---|
口口口口 |⑥---|
35
口口口② |①---|
口①①口 |----|
口口口口 |②---|
②口口口 |----|
36
①口口② |①---|
口口口口 |----|
口口口口 |②---|
②口口① |----|
37
①口口② |①---|
口口口口 |----|
口口口口 |②---|
②口口① |----|
38
①口口② |①---|
口口口口 |----|
口口口口 |②---|
②口口① |----|
39
①①②② |①---|
口口口口 |----|
口口口口 |②---|
②②①① |----|
40
①①②② |①---|
口口口口 |----|
口口口口 |②---|
②②①① |----|
41
①①②② |①---|
口口口口 |----|
口口口口 |②---|
②②①① |----|
42
①口口② |①---|
①口口② |----|
②口口① |②---|
②口口① |----|
43
①口③② |①---|
①口口② |----|
②口口① |②---|
②口口① |--③-|
44
口口口口 |-①--|
口①口口 |②--③|
口口②口 |--④-|
口③④口 |----|
45
②②口口 |①---|
口口口③ |②---|
①口④口 |③-④-|
口⑤口口 |⑤---|
46
口④④口 |①-②-|
①口口⑤ |③-④-|
口②口⑥ |--⑤-|
口口③⑦ |⑥-⑦-|
47
②②口口 |①---|
口口口③ |②---|
①口④口 |③-④-|
口⑤口口 |⑤---|
48
口④④口 |①-②-|
①口口⑤ |③-④-|
口②口⑥ |--⑤-|
口口③⑦ |⑥-⑦-|
49
②②口口 |①---|
口口口③ |②---|
①口④口 |③-④-|
口⑤口口 |⑤---|
50
口④④口 |①-②-|
①口口⑤ |③-④-|
口②口⑥ |--⑤-|
口口③⑦ |⑥-⑦-|
51
②②口口 |①---|
口口口③ |②---|
①口④口 |③-④-|
口⑤口口 |⑤---|
52
⑥④④⑤ |①-②-|
①口口口 |③-④-|
口②口口 |--⑤-|
口口③口 |⑥---|
53
口口口口 |①-②-|
口④①口 |③---|
口⑤②口 |④-⑤-|
口⑥③口 |⑥---|
54
①口口① |①-②-|
②⑤⑤② |③-④-|
③口口③ |⑤---|
④口口④ |----|
55
口口口口 |①---|
③口口① |②---|
口④②口 |③---|
口口口口 |④---|
56
口口口口 |①---|
口口①口 |②---|
口口②口 |③---|
口口③口 |----|
57
口口口⑥ |①---|
②口⑤口 |②---|
口口口④ |③-④-|
①口③口 |⑤-⑥-|
58
⑤口①口 |①--②|
②口口口 |--③-|
口④③口 |④---|
口口口口 |⑤---|
59
口口口⑥ |①---|
②口⑤口 |②---|
口口口④ |③-④-|
①口③口 |⑤-⑥-|
60
口口①口 |①--②|
②口口口 |--③-|
口④③口 |④---|
口口口口 |----|
61
口口口⑥ |①---|
②口⑤口 |②---|
口口口④ |③-④-|
①口③口 |⑤-⑥-|
62
⑤口①口 |①--②|
②口口口 |--③-|
口④③口 |④---|
口口口口 |⑤---|
63
口⑥口口 |①--②|
口口③⑤ |--③-|
②④口口 |④--⑤|
口口①口 |--⑥-|
64
口口①口 |①--②|
②口口口 |--③-|
口④③口 |④---|
口口口口 |----|
65
口口口⑧ |①-②-|
③口⑦④ |③-④-|
口口口⑥ |⑤-⑥-|
①口⑤② |⑦-⑧-|
66
⑤口①口 |①--②|
②口口口 |--③-|
口④③口 |④---|
口口口口 |⑤---|
67
口口口⑧ |①-②-|
③口⑦④ |③-④-|
口口口⑥ |⑤-⑥-|
①口⑤② |⑦-⑧-|
68
口口①口 |①--②|
②口口口 |--③-|
口④③口 |④---|
口口口口 |----|
69
口口口⑧ |①-②-|
③口⑦④ |③-④-|
口口口⑥ |⑤-⑥-|
①口⑤② |⑦-⑧-|
70
口⑥①口 |①--②|
②口口⑤ |--③-|
口④③口 |④--⑤|
口口口口 |--⑥-|
71
⑤口口④ |①---|
口①①口 |②-③-|
③口口③ |--④-|
口②②口 |⑤---|
72
⑥口口⑥ |①---②-|
③⑤⑤③ |--③---|
④②②④ |④---⑤-|
①口口① |--⑥---|
73
口①①口 |①---|
口口②口 |----|
③口口口 |②--③|
口口④口 |--④-|
74
⑤⑥④③ |①---|
口口口口 |②---|
口②②口 |③-④-|
口①口口 |⑤-⑥-|
75
口⑧⑦口 |①-②-|
口⑥⑤口 |③-④-|
口④③口 |⑤-⑥-|
口②①口 |⑦-⑧-|
76
口口口口 |①-②-|
口⑤⑤口 |③-④-|
口口口口 |⑤---|
③④②① |----|
77
口③口⑤ |①---|
②口④口 |----|
口①①口 |②-③-|
口口口口 |④-⑤-|
78
口口口口 |--①-|
口⑦⑥口 |②-③-|
①⑤④口 |④-⑤-|
口③②口 |⑥-⑦-|
79
①口口① |①---|
口⑦⑥口 |②-③-|
口⑤④口 |④-⑤-|
口③②口 |⑥-⑦-|
80
①⑥⑤① |①---|
③口口口 |②-③-|
口口口② |④-⑤-|
口④⑦口 |⑥-⑦-|
81
口口⑥口 |①-②-|
口⑦⑤① |③-④-|
口⑧④② |⑤-⑥-|
口口口③ |⑦-⑧-|
82
④⑧⑦口 |①-②-|
③⑥⑤口 |③-④-|
②口口口 |⑤-⑥-|
口①口口 |⑦-⑧-|
83
口口⑥口 |①-②-|
口⑦⑤① |③-④-|
口⑧④② |⑤-⑥-|
口口口③ |⑦-⑧-|
84
④⑥⑤口 |①-②-|
③⑦⑦口 |③-④-|
②⑦⑦口 |⑤-⑥-|
口①口口 |⑦---|

不確定度: 0

最終更新:2017年06月21日 21:21