ロプノールの商隊
Akhuta

EXTREME

Level: 9
BPM: 186
Notes: 733

1
口口口口 |----|
口口口口 |----|
口口口口 |----|
口口口口 |----|
2
口①口① |①---|
②口②口 |--②-|
口③口③ |----|
口口口口 |③---|
3
口口口口 |--①-|
口口②② |----|
③③口口 |②---|
①口①口 |③---|
4
①①④口 |①---|
③口口口 |②--③|
口口②口 |--④-|
⑤口口口 |-⑤--|
5
口口口口 |①-②-|
口口口口 |③-④-|
③④②①
口口口口

⑦口口⑥
口⑤⑤口
口口⑧口 |⑤--⑥|
口口口口 |⑦--⑧|
6
口口②口 |--①-|
①口口口 |-②--|
口口口口 |③-④-|
③④⑥⑤ |⑤-⑥-|
7
口②口② |①---|
口①①口 |--②-|
口口口口 |----|
③口③口 |③---|
8
④口口② |--①-|
口口③口 |----|
口①口① |②---③-|
口口口口 |--④---|
9
⑨口④口 |①---②-|
⑤①⑧口 |--③---|
口口⑥② |④-⑤-⑥-|
⑦口③口 |⑦-⑧-⑨-|
10
口⑤口口 |①---|
口①口② |②-③-|
③①⑥口 |④-⑤-|
⑦口④口 |⑥-⑦-|
11
②口③⑧ |①-②-|
口口口⑦ |③-④-|
④口⑥口 |⑤-⑥-|
口口⑤① |⑦-⑧-|
12
口口口口 |①---|
③口口口 |②-③-|
口口口②
①①口口

口⑤口口
口口口⑥
口口口口 |④-⑤-|
⑦口④口 |⑥-⑦-|
13
口口⑧③ |①-②-|
口口⑦口 |③-④-|
④口①⑥ |⑤-⑥-|
口②⑤⑤ |⑦-⑧-|
14
④③口口 |①②③④|
②①口口 |--⑤⑥|
口口口口
⑥⑤口口

口⑫⑪口
口⑩⑨口
⑧⑦口口 |⑦⑧--|
口口口口 |⑨⑩⑪⑫|
15
口口⑧口 |--①②|
口口⑦口 |③④--|
口④③⑥ |⑤-⑥-|
口②①⑤ |⑦-⑧-|
16
④③口口 |①②③④|
②①口口 |--⑤⑥|
口口口口
⑥⑤口口

口⑫⑪口
口⑩⑨口
⑧⑦口口 |⑦⑧--|
口口口口 |⑨⑩⑪⑫|
17
口口口⑤ |--①②|
口口口⑥ |③④--|
口④③⑧ |⑤-⑥-|
口②①⑦ |⑦-⑧-|
18
口口口口 |①---|
口①①口 |----|
口口口口 |----|
口口口口 |----|
19
口口口口 |①---|
口口口⑤ |--②③|
④③②口 |④---|
口①①口 |⑤---|
20
口⑤口口 |①-②-|
口④②口 |③-④-|
口③口口 |⑤---|
口⑥①口 |⑥---|
21
口口口口 |①---|
口⑤口① |--②③|
口②③④ |④---|
口口口口 |⑤---|
22
口口⑦⑧ |①-②-|
⑤⑥口口 |③-④-|
④③口口 |⑤-⑥-|
口口②① |⑦-⑧-|
23
口口口口 |①---|
口口口⑤ |--②③|
④③②口 |④---|
口①①口 |⑤---|
24
口⑤口⑥ |①-②-|
口④②口 |③-④-|
口③口口 |⑤---|
口口①口 |⑥---|
25
口口口⑤ |①---|
②④口⑥ |②-③-|
口口①口 |--④-|
口③口口 |⑤-⑥-|
26
口口⑦⑧ |①-②-|
⑤⑥口口 |③-④-|
④③口口 |⑤-⑥-|
口口②① |⑦-⑧-|
27
⑥口口口 |①---|
口口②⑦ |②-③④|
⑤④③口 |⑤-⑥-|
口①①口 |⑦---|
28
口⑤口⑥ |①-②-|
口④②口 |③-④-|
口③口口 |⑤-⑥-|
口⑦①口 |⑦---|
29
②口口⑥ |①---|
口⑦口① |②-③④|
口③④⑤ |⑤-⑥-|
口口口口 |⑦---|
30
口口⑦⑧ |①-②-|
⑤⑥口口 |③-④-|
④③口口 |⑤-⑥-|
口口②① |⑦-⑧-|
31
⑥口口口 |①---|
口口②⑦ |②-③④|
⑤④③口 |⑤-⑥-|
口①①口 |⑦---|
32
口⑤口⑥ |①-②-|
口④②口 |③-④-|
口③口口 |⑤-⑥-|
口⑦①口 |⑦---|
33
⑤口⑦⑥ |①-②③|
⑨⑧口① |④-⑤-|
口②③④ |⑥-⑦-|
口口口口 |⑧-⑨-|
34
口⑤⑤口 |①-②-|
口口口口 |③-④-|
①②口口 |⑤---|
口⑥③④ |⑥---|
35
②⑥口口 |①---|
口③②① |----|
①④①② |②-③④|
口⑤口口 |⑤-⑥-|
36
口口口口 |①-②③|
②⑥⑤① |④---|
③⑦①⑤ |⑤---|
④⑧口口 |⑥⑦⑧-|
37
口②口口 |①-②-|
③⑥⑤① |--③④|
④⑦①⑤ |⑤---|
⑤⑧口口 |⑥⑦⑧-|
38
①①口口 |①---|
⑥口④① |②--③|
②⑤①④ |④-⑤-|
③口口口 |-⑥--|
39
口①①口 |①---|
口口口① |----|
口口口口
口口口口

②⑥口②
口③②口
口④口口 |②-③④|
口⑤口口 |⑤-⑥-|
40
⑤口①⑤ |①-②③|
②⑥⑤① |④---|
③⑦口口 |⑤---|
④⑧口口 |⑥⑦⑧-|
41
口②①⑤ |①-②-|
③⑥⑤① |--③④|
④⑦口口 |⑤---|
⑤⑧口口 |⑥⑦⑧-|
42
⑥①口口 |①---|
②⑤④① |②--③|
③口①④ |④-⑤-|
口口口口 |-⑥--|
43
口①口口 |①---|
②口口口 |②③④-|
③口①口
④口口①

⑥⑦口⑦
口口⑦口
口口口⑤ |⑤--⑥|
口口⑤口 |--⑦-|
44
口口①口 |-①--|
①②口① |②--③|
③④②③ |--④-|
口④③② |----|
45
口②⑨③ |①-②-|
口④口口 |③-④-|
口口口⑤ |⑤-⑥⑦|
①⑧⑦⑥ |⑧-⑨-|
46
口③口④ |①-②-|
⑤口口② |③-④-|
⑥①口口 |--⑤-|
⑦口口口 |⑥-⑦-|
47
口⑥①⑧ |①-②③|
口口口口 |④-⑤-|
⑨④③② |⑥-⑦-|
口⑦⑤口 |⑧-⑨-|
48
②口④口 |①-②-|
①口口④ |③-④-|
口口口口
口口③口

口口口⑦
⑩口口口
口⑥口⑨ |--⑤⑥|
⑧口口⑤ |⑦⑧⑨⑩|
49
口②③口 |①-②-|
口⑧⑦⑥ |③-④-|
口口①口 |⑤-⑥⑦|
口④⑨⑤ |⑧-⑨-|
50
口④口② |①-②-|
④口口⑤ |③-④-|
①口口⑥ |--⑤-|
口③口⑦ |⑥-⑦-|
51
⑧④③② |①-②③|
⑦口口口 |④-⑤-|
⑥口①⑨ |⑥-⑦-|
口口⑤口 |⑧-⑨-|
52
⑥口④⑤ |①-②-|
口②口④ |③-④-|
口口口口 |--⑤-|
口①③口 |⑥---|
53
口口口⑩ |①②③④|
⑨②①⑧ |⑤---|
⑦④③⑥ |⑥⑦⑧⑨|
口口⑤口 |⑩---|
54
⑥口⑥口 |①②③④|
口②①口 |⑤-⑥-|
口④③口 |⑦---|
口⑦⑤⑦ |----|
55
口④口口 |①---|
③口口③ |②---|
口②口① |③---|
①口口口 |④---|
56
①口口① |①---|
口口口口 |②-③-|
③口口口
口②口口

口口口⑧
口④口⑦
口口口⑥ |④---|
口口口⑤ |⑤⑥⑦⑧|
57
口⑥①⑧ |①-②③|
口口口口 |④-⑤-|
④③②口 |⑥-⑦-|
⑦口⑤⑨ |⑧-⑨-|
58
③口①口 |①--②|
口④口口 |--③-|
口口口口 |④---|
⑤②②⑤ |⑤---|
59
口⑥①⑧ |①-②③|
口口口口 |④-⑤-|
④③②口 |⑥-⑦-|
⑦口⑤⑨ |⑧-⑨-|
60
③口①口 |①--②|
口口口口 |--③-|
口口口口
口②②口

口口⑦⑥
口④⑤口
口口口④ |④-⑤-|
口口口口 |⑥-⑦-|
61
口⑥口⑧ |①-②③|
口口口① |④-⑤-|
④③②口 |⑥-⑦-|
⑦口⑤⑨ |⑧-⑨-|
62
③口①口 |①--②|
口④口口 |--③-|
口口口口 |④---|
⑤②②⑤ |⑤---|
63
口③①口 |①--②|
③口口① |--③-|
②口口口
口②口口

④口⑥口
口④口⑥
口口口⑤ |④--⑤|
口口⑤口 |--⑥-|
64
③口口① |①--②|
口③①口 |--③-|
口②②口
口口口口

口④口⑧
④口口⑦
口口口⑥ |④---|
口口口⑤ |⑤⑥⑦⑧|
65
口⑥①⑧ |①-②③|
口口口口 |④-⑤-|
④③②口 |⑥-⑦-|
⑦口⑤⑨ |⑧-⑨-|
66
④③①口 |①--②|
③④口① |--③-|
口口口口 |④---|
⑤②②⑤ |⑤---|
67
口⑥①⑧ |①-②③|
口口口① |④-⑤-|
④③②口 |⑥-⑦-|
⑦口⑤⑨ |⑧-⑨-|
68
口③①口 |①--②|
③口口① |--③-|
口口口口
口②②口

④口⑦⑥
口④⑤口
口口口④ |④-⑤-|
口口口口 |⑥-⑦-|
69
口⑥口⑧ |①-②③|
口口口① |④-⑤-|
④③②口 |⑥-⑦-|
⑦①⑤⑨ |⑧-⑨-|
70
④③①口 |①--②|
③④⑥① |--③-|
口⑤⑤⑥ |④--⑤|
口②②口 |--⑥-|
71
⑥口口① |①---|
②口⑤③ |②-③-|
④口口口 |--④-|
③口①② |⑤-⑥-|
72
口②口② |①---②-|
口口口口 |--③---|
口口口①
③③①口

口口⑤口
④⑤口⑤
口④⑥口 |④---⑤-|
口口⑥口 |--⑥---|
73
①口口① |①---|
④口口口 |----|
①③口① |②--③|
②口口口 |--④-|
74
口⑩⑩⑥ |①-②③|
口④③② |④-⑤-|
口⑨⑧⑦ |⑥-⑦⑧|
口⑤⑤① |⑨-⑩-|
75
②口口口 |①②③④|
口⑥③⑤ |⑤⑥⑦⑧|
口口口口
④⑧⑦①

⑯⑫⑮⑨
口口口口
⑩⑭⑪⑬ |⑨⑩⑪⑫|
口口口口 |⑬⑭⑮⑯|
76
口口口⑤ |①-②③|
口④③② |④-⑤-|
口口口口
①⑤口①

口⑥口口
⑦口口口
口⑧⑥口 |⑥-⑦-|
⑨口口口 |⑧-⑨-|
77
口口⑤口 |①---|
口口④① |----|
口③口① |②-③-|
口②口口 |④-⑤-|
78
③口口⑧ |--①-|
①口口口 |②-③-|
②⑦⑥⑤ |④-⑤⑥|
口口④口 |⑦-⑧-|
79
口口④口 |①-②-|
①⑤口口 |③-④⑤|
②口口口
③口口口

口⑨口口
⑪口⑫⑧
口⑬口口 |⑥⑦⑧⑨|
口⑦⑩⑥ |⑩⑪⑫⑬|
80
①⑤⑦① |①---|
口口口口 |②-③-|
②口口口 |④-⑤-|
⑥③口④ |⑥-⑦-|
81
③口⑦② |①-②-|
口⑤⑥⑦ |③-④-|
④口口① |⑤-⑥-|
口④①⑧ |⑦-⑧-|
82
⑦②口⑤ |①-②-|
②口口口 |③-④-|
⑥③④⑧ |⑤-⑥-|
①⑦⑤口 |⑦-⑧-|
83
口④①⑧ |①-②-|
④口口① |③-④-|
口⑤⑥⑦ |⑤-⑥-|
③口⑦② |⑦-⑧-|
84
①⑦⑤口 |①-②-|
口③④口 |③-④-|
②⑥⑥口 |⑤-⑥-|
⑦②口⑤ |⑦---|

不確定度: 0

最終更新:2017年06月21日 21:21