coming true
GUHROOVY Vs. L.E.D.

ADVANCED

Level: 7
BPM: 175
Notes: 660

1
口口口口 |----|
口口口口 |----|
口口口口 |----|
口口口口 |----|
2
口口口口 |①---|
口口①口 |----|
口①口口 |----|
口口口口 |----|
3
口①②口 |①-②-|
口③④口 |③-④-|
口⑤⑥口 |⑤-⑥-|
口⑦⑧口 |⑦-⑧-|
4
①口口② |①-②-|
③口口④ |③-④-|
⑤口口⑥ |⑤-⑥-|
⑦口口⑧ |⑦-⑧-|
5
口①②口 |①-②-|
口③④口 |③-④-|
口⑤⑥口 |⑤-⑥-|
口⑦⑧口 |⑦-⑧-|
6
①口口② |①-②-|
③口口④ |③-④-|
⑤口口⑥ |⑤-⑥-|
⑦口口⑧ |⑦-⑧-|
7
口①②口 |①-②-|
口③④口 |③-④-|
口⑤⑥口 |⑤-⑥-|
口⑦⑧口 |⑦-⑧-|
8
①口口② |①-②-|
③口口④ |③-④-|
⑤口口⑥ |⑤-⑥-|
⑦口口⑧ |⑦-⑧-|
9
口①②口 |①-②-|
口③④口 |③-④-|
口⑤⑥口 |⑤-⑥-|
口⑦⑧口 |⑦-⑧-|
10
口口口口 |①---|
①口口① |----|
口②③口 |----|
口④⑤口 |②③④⑤|
11
口口口口 |----|
口口口口 |----|
口①②口 |----|
口③④口 |①②③④|
12
口口口口 |----|
口口口口 |----|
口①②口 |----|
口③④口 |①②③④|
13
口口口口 |----|
口口口口 |----|
口①②口 |----|
口③④口 |①②③④|
14
口口口口 |----|
口口口口 |----|
口①②口 |----|
口③④口 |①②③④|
15
口口口口 |----|
口口口口 |----|
口①②口 |----|
口③④口 |①②③④|
16
口口口口 |----|
口口口口 |----|
口①②口 |----|
口③④口 |①②③④|
17
口口口口 |----|
③口口③ |----|
②口口② |①--②|
①口口① |--③-|
18
①口口① |--①-|
⑤②②⑤ |-②--|
④口口④ |③--④|
③口口③ |--⑤-|
19
①①口口 |--①-|
⑤②②⑤ |-②--|
口④④口 |③--④|
口口③③ |--⑤-|
20
口口①① |--①-|
⑤②②⑤ |-②--|
口④④口 |③--④|
③③口口 |--⑤-|
21
口①①口 |--①-|
⑤②②⑤ |-②--|
④口口④ |③--④|
③口口③ |--⑤-|
22
①②②① |--①-|
口口口口 |-②--|
口③③口 |③--④|
⑤⑤④④ |--⑤-|
23
①②②① |--①-|
口口口口 |-②--|
口③③口 |③--④|
⑤⑤④④ |--⑤-|
24
口口口口 |--①-|
①①②② |-②--|
③⑤⑤③ |③--④|
④口口④ |--⑤-|
25
口口口口 |--①-|
①①②② |-②--|
③⑤⑤③ |③--④|
口④④口 |--⑤-|
26
①口口① |--①-|
⑤②②⑤ |-②--|
④口口④ |③--④|
③口口③ |--⑤-|
27
①①口口 |--①-|
⑤②②⑤ |-②--|
口④④口 |③--④|
口口③③ |--⑤-|
28
口口①① |--①-|
⑤②②⑤ |-②--|
口④④口 |③--④|
③③口口 |--⑤-|
29
口①①口 |--①-|
⑤②②⑤ |-②--|
④口口④ |③--④|
③口口③ |--⑤-|
30
①②②① |--①-|
口口口口 |-②--|
口③③口 |③--④|
⑤⑤④④ |--⑤-|
31
①②②① |--①-|
口口口口 |-②--|
口③③口 |③--④|
⑤⑤④④ |--⑤-|
32
口口口口 |--①-|
①①②② |-②--|
③⑤⑤③ |③--④|
④口口④ |--⑤-|
33
口口口口 |--①-|
①①②② |-②--|
③⑤⑤③ |③--④|
口④④口 |--⑤-|
34
③口口③ |①---|
④②②④ |②---|
口口口口 |--③-|
①口口① |--④-|
35
④口口④ |①-②-|
⑤口口⑤ |--③-|
口①②口 |--④-|
③口口③ |--⑤-|
36
口口口口 |①---|
口①①口 |②---|
②③③② |--③-|
口④④口 |--④-|
37
口②②口 |--①-|
①口口① |--②-|
口③③口 |--③-|
口④④口 |--④-|
38
③②②③ |①---|
④口口④ |②---|
①口口① |--③-|
口口口口 |--④-|
39
④口口④ |①-②-|
⑤口口⑤ |--③-|
口①②口 |--④-|
③口口③ |--⑤-|
40
口③③口 |①---|
口④④口 |②---|
②口口② |--③-|
口①①口 |--④-|
41
口③③口 |--①-|
④口口④ |--②-|
口②②口 |--③-|
①口口① |--④-|
42
③口口③ |①---|
④②②④ |②---|
口口口口 |--③-|
①口口① |--④-|
43
④口口④ |①-②-|
⑤口口⑤ |--③-|
口①②口 |--④-|
③口口③ |--⑤-|
44
口口口口 |①---|
口①①口 |②---|
②③③② |--③-|
口④④口 |--④-|
45
口②②口 |--①-|
①口口① |--②-|
口③③口 |--③-|
口④④口 |--④-|
46
③②②③ |①---|
④口口④ |②---|
①口口① |--③-|
口口口口 |--④-|
47
④口口④ |①-②-|
⑤口口⑤ |--③-|
口①②口 |--④-|
③口口③ |--⑤-|
48
口③③口 |①---|
口④④口 |②---|
②口口② |--③-|
口①①口 |--④-|
49
口③③口 |--①-|
④口口④ |--②-|
口②②口 |--③-|
①口口① |--④-|
50
口口口口 |①---|
口口口口 |----|
口口口口 |----|
①①①① |----|
51
口口口口 |①---|
口①①口 |----|
②②口口 |----|
口口口口 |②---|
52
口口口口 |①---|
口口口口 |----|
口口①① |----|
口口口口 |----|
53
口口口口 |①---|
口口口口 |----|
口口口口 |----|
①口口① |----|
54
口口口口 |①---|
②口口② |----|
口①①口 |----|
口口口口 |②---|
55
①口口① |①---|
口口口口 |----|
口口口口 |----|
口口口口 |----|
56
口口口口 |①---|
口①①口 |----|
口口口口 |----|
口口口口 |----|
57
口口口口 |①---|
口口口口 |----|
口①①口 |----|
口口口口 |----|
58
口①①口 |①-②-|
③口口③ |--③-|
口②②口 |----|
口口口口 |----|
59
①①口口 |--①-|
⑤②②⑤ |-②--|
口④④口 |③--④|
口口③③ |--⑤-|
60
口口①① |--①-|
⑤②②⑤ |-②--|
口④④口 |③--④|
③③口口 |--⑤-|
61
口①①口 |--①-|
⑤②②⑤ |-②--|
④口口④ |③--④|
③口口③ |--⑤-|
62
①②②① |--①-|
口口口口 |-②--|
口③③口 |③--④|
⑤⑤④④ |--⑤-|
63
①②②① |--①-|
口口口口 |-②--|
口③③口 |③--④|
⑤⑤④④ |--⑤-|
64
口口口口 |--①-|
①①②② |-②--|
③⑤⑤③ |③--④|
口④④口 |--⑤-|
65
②①①② |①--②|
⑤口口⑤ |--③-|
④口口④ |-④--|
③口口③ |⑤---|
66
②①①② |①-②-|
⑥③③⑥ |-③--|
⑤口口⑤ |④--⑤|
④口口④ |--⑥-|
67
①①口口 |--①-|
⑤②②⑤ |-②--|
口④④口 |③--④|
口口③③ |--⑤-|
68
口口①① |--①-|
⑤②②⑤ |-②--|
口④④口 |③--④|
③③口口 |--⑤-|
69
口①①口 |--①-|
⑤②②⑤ |-②--|
④口口④ |③--④|
③口口③ |--⑤-|
70
①②②① |--①-|
口口口口 |-②--|
口③③口 |③--④|
⑤⑤④④ |--⑤-|
71
①②②① |--①-|
口口口口 |-②--|
口③③口 |③--④|
⑤⑤④④ |--⑤-|
72
口口口口 |--①-|
①①②② |-②--|
③⑤⑤③ |③--④|
④口口④ |--⑤-|
73
口口口口 |--①-|
①①②② |-②--|
③⑤⑤③ |③--④|
口④④口 |--⑤-|
74
①口口① |--①-|
⑤②②⑤ |-②--|
④口口④ |③--④|
③口口③ |--⑤-|
75
①①口口 |--①-|
⑤②②⑤ |-②--|
口④④口 |③--④|
口口③③ |--⑤-|
76
口口①① |--①-|
⑤②②⑤ |-②--|
口④④口 |③--④|
③③口口 |--⑤-|
77
口①①口 |--①-|
⑤②②⑤ |-②--|
④口口④ |③--④|
③口口③ |--⑤-|
78
①②②① |--①-|
口口口口 |-②--|
口③③口 |③--④|
⑤⑤④④ |--⑤-|
79
①②②① |--①-|
口口口口 |-②--|
口③③口 |③--④|
⑤⑤④④ |--⑤-|
80
口口口口 |--①-|
①①②② |-②--|
③⑤⑤③ |③--④|
④口口④ |--⑤-|
81
口①①口 |①--②|
②②③③ |--③-|
④⑥⑥④ |④--⑤|
口⑤⑤口 |--⑥-|
82
①①①① |①---|
口口口口 |----|
口口口口 |----|
口口口口 |----|
83
口口口口 |①---|
口口口口 |--②-|
②②①① |----|
口③③口 |③---|
84
口口口口 |①---|
口①①口 |----|
口口口口 |----|
口口口口 |----|
85
口口口口 |----|
口①口口 |----|
口口口口 |----|
口口口口 |①---|
86
口口①口 |①---|
口口口口 |----|
口口口口 |----|
口口口口 |----|
87
口口口口 |①---|
口口口口 |----|
口口口① |----|
口口口口 |----|
88
口口口口 |①---|
口口口口 |----|
口口口口 |----|
口①口口 |----|


不确定度: 0

最終更新:2012年11月11日 16:27