Lost wing at.0
猫叉Master+

BASIC

Level: 4
BPM: 185
Notes: 255

1
口口口口 |----|
口口口口 |----|
口口口口 |----|
口口口口 |----|
2
口口口口 |①---|
①口口② |②---|
口③④口 |③---|
口口口口 |④---|
3
口口口口 |①---|
口③③口 |--②-|
②口口② |----|
口①①口 |③---|
4
①口口① |--①-|
口口口口 |----|
口口口口 |----|
口口口口 |----|
5
口口口口 |----|
口口口口 |----|
口口口口 |----|
口口口口 |----|
6
①口口① |①---|
口②②口 |--②-|
③口口③ |----|
口口口口 |③---|
7
口口口口 |--①-|
口口口口 |----|
口口口口 |----|
口①①口 |----|
8
口口口口 |----|
口口口口 |----|
口口口口 |----|
口口口口 |----|
9
口口口口 |①---|
口③③口 |--②-|
②口口② |----|
口①①口 |③---|
10
①口口① |--①-|
口口口口 |----|
口口口口 |----|
口口口口 |----|
11
口口口口 |----|
口口口口 |----|
口口口口 |----|
口口口口 |----|
12
口口口口 |①---|
③口口③ |--②-|
口②②口 |----|
①口口① |③---|
13
口①①口 |--①-|
口口口口 |----|
口口口口 |----|
口口口口 |----|
14
①口口① |①---|
口口口口 |----|
口口口口 |----|
口口口口 |----|
15
口口口口 |①---|
口口口口 |----|
口①①口 |----|
口口口口 |----|
16
口口口口 |----|
口口口口 |----|
口口口口 |----|
口口口口 |----|
17
口口口① |----|
口口②口 |①---|
口③口口 |②---|
口口口口 |③---|
18
口口口口 |①---|
口口口口 |----|
口口口口 |----|
①口口口 |----|
19
口口口口 |①---|
口口口口 |----|
口口口口 |----|
口口口① |----|
20
②口口口 |①---|
口③口口 |----|
口①口口 |--②-|
口口口口 |--③-|
21
口口口口 |--①-|
口口③口 |--②-|
口②①口 |--③-|
口口口口 |----|
22
①口口口 |①---|
口口口口 |----|
口口口口 |----|
口口口口 |----|
23
口口口① |①---|
口口口口 |----|
口口口口 |----|
口口口口 |----|
24
口口口口 |①---|
口①口口 |----|
口口③口 |--②-|
口口口② |--③-|
25
口口口口 |--①-|
口①③口 |--②-|
口②口口 |--③-|
口口口口 |----|
26
口口①口 |----|
口口②口 |①---|
口口③口 |②---|
口口口口 |③---|
27
口口口口 |----|
口③口口 |①---|
口②口口 |②---|
口①口口 |③---|
28
①口口口 |----|
②口口口 |①---|
③口口口 |②---|
口口口口 |③---|
29
口口口口 |----|
口口口③ |--①-|
口口口② |--②-|
口口口① |--③-|
30
口①口口 |----|
口②口口 |①---|
口③口口 |②---|
口口口口 |③---|
31
口口口口 |----|
口口③口 |①---|
口口②口 |②---|
口口①口 |③---|
32
口口口① |----|
口口口② |①---|
口口口③ |②---|
口口口口 |③---|
33
口口口口 |----|
③口口口 |--①-|
②口口口 |--②-|
①口口口 |--③-|
34
口口口口 |----|
口口口口 |----|
口口口口 |----|
口口口口 |----|
35
口口口口 |①---|
口口口口 |----|
口口①① |----|
口口口口 |----|
36
口口口口 |①---|
口口口口 |----|
口口③口 |--②-|
①①②口 |--③-|
37
口②口口 |--①-|
口③①口 |--②-|
口口口口 |--③-|
口口口口 |----|
38
口口①① |①---|
口口口口 |----|
口口口口 |----|
口口口口 |----|
39
口口口口 |①---|
①①口口 |----|
口口口口 |----|
口口口口 |----|
40
口口口口 |①---|
口口口口 |----|
口③①① |--②-|
口②口口 |--③-|
41
口口②口 |--①-|
口①③口 |--②-|
口口④口 |--③-|
口口口口 |--④-|
42
口口口口 |----|
口口口口 |----|
口口口口 |----|
口口口口 |----|
43
口口口口 |----|
口口口口 |----|
口口口口 |----|
口口口口 |----|
44
口口①① |①---|
②②口口 |--②-|
口口③③ |----|
口口口口 |③---|
45
口口口口 |--①-|
口口口口 |----|
口口口口 |----|
①①口口 |----|
46
口口口口 |①---|
口②口口 |--②-|
①口③口 |----|
口口口口 |③---|
47
口口口口 |--①-|
口口口① |----|
口口口口 |----|
口口口口 |----|
48
口口口口 |①---|
②口口口 |--②-|
口①口③ |----|
口口口口 |③---|
49
口口口口 |--①-|
口口①口 |----|
口口口口 |----|
口口口口 |----|
50
口口口口 |①---|
口②口口 |--②-|
①口③口 |----|
口口口口 |③---|
51
口口口口 |--①-|
口口口① |----|
口口口口 |----|
口口口口 |----|
52
口口口口 |①---|
②口口口 |--②-|
口①口③ |----|
口口口口 |③---|
53
口口口口 |--①-|
口口①口 |----|
口口口口 |----|
口口口口 |----|
54
口口口口 |①---|
口②口口 |--②-|
①口③口 |----|
口口口口 |③---|
55
口口口口 |--①-|
口口口① |----|
口口口口 |----|
口口口口 |----|
56
口口口口 |①---|
②口口口 |--②-|
口①口③ |----|
口口口口 |③---|
57
口口口口 |--①-|
口口①口 |----|
口口口口 |----|
口口口口 |----|
58
口口口口 |①---|
口②口口 |--②-|
①口③口 |----|
口口口口 |③---|
59
口口口口 |--①-|
口口口① |----|
口口口口 |----|
口口口口 |----|
60
口口口口 |①---|
②②口口 |--②-|
口口口口 |----|
①①③③ |③---|
61
口口口口 |--①-|
口口①① |----|
口口口口 |②---|
口②③口 |③---|
62
②②口口 |①---|
口口口口 |--②-|
①①③③ |----|
口口口口 |③---|
63
口口①① |--①-|
口口口口 |----|
口口口口 |----|
口口口口 |----|
64
口①口口 |①---|
④口②口 |②---|
口口口③ |③---|
口口口口 |④---|
65
口口③口 |①---|
口④口口 |②---|
口①口口 |③---|
口口②口 |④---|
66
口口口口 |①---|
口口口② |②---|
①口③口 |③---|
口④口口 |④---|
67
③口口口 |①---|
④口口口 |②---|
口口口② |③---|
口口口① |④---|
68
口口口口 |①---|
口口①口 |----|
口①口口 |----|
口口口口 |----|
69
④口④口 |①---|
口③口口 |②---|
②口②口 |③---|
口①口口 |④---|
70
口口口口 |----|
口口口口 |----|
口口口口 |----|
口口口口 |----|
71
口口口③ |----|
口口口② |①---|
口口口① |②---|
口口口口 |③---|
72
口①口口 |①---|
④口②口 |②---|
口口口③ |③---|
口口口口 |④---|
73
口口③口 |①---|
口④口口 |②---|
口①口口 |③---|
口口②口 |④---|
74
口口口口 |①---|
口口口② |②---|
①口③口 |③---|
口④口口 |④---|
75
③口口口 |①---|
④口口口 |②---|
口口口② |③---|
口口口① |④---|
76
口口口口 |----|
口口口口 |----|
口口口口 |----|
口口口口 |----|
77
口④口④ |①---|
口口③口 |②---|
口②口② |③---|
口口①口 |④---|
78
口口口口 |----|
口口口口 |----|
口口口口 |----|
口口口口 |----|
79
口口②② |①---|
口口②② |----|
①①口口 |②---|
①①口口 |----|
80
口口口口 |①---|
口③③口 |--②-|
②口口② |----|
口①①口 |③---|
81
①口口① |--①-|
口口口口 |----|
口口口口 |----|
口口口口 |----|
82
口口口口 |----|
口口口口 |----|
口口口口 |----|
口口口口 |----|
83
①口口① |①---|
口②②口 |--②-|
③口口③ |----|
口口口口 |③---|
84
口口口口 |--①-|
口口口口 |----|
口口口口 |----|
口①①口 |----|
85
口口口口 |----|
口口口口 |----|
口口口口 |----|
口口口口 |----|
86
口口口口 |①---|
口③③口 |--②-|
②口口② |----|
口①①口 |③---|
87
①口口① |--①-|
口口口口 |----|
口口口口 |----|
口口口口 |----|
88
口口口口 |----|
口口口口 |----|
口口口口 |----|
口口口口 |----|
89
口口口口 |①---|
③口口③ |--②-|
口②②口 |----|
①口口① |③---|
90
口①①口 |--①-|
口口口口 |----|
口口口口 |----|
口口口口 |----|
91
①①①① |①---|
口口口口 |----|
口口口口 |----|
口口口口 |----|
92
口口口口 |①---|
口口口口 |----|
口口口口 |----|
①①①① |----|

不確定度: 0

最終更新:2017年06月24日 03:16