Lost wing at.0
猫叉Master+

ADVANCED

Level: 8
BPM: 185
Notes: 496

1
口口口口 |----|
口口口口 |----|
口口口口 |----|
口口口口 |----|
2
①口口③ |①---|
②④口口 |②---|
口口口⑤ |③-④-|
⑥⑦口口 |⑤-⑥⑦|
3
口口口口 |①---|
②口口口 |--②-|
口口口③ |----|
口口①口 |③---|
4
口口口口 |--①-|
③口口口 |----|
②口口口 |②---|
口①口口 |③---|
5
口口口① |①-②-|
口②⑤口 |③---|
口口④③ |④---|
⑥⑦口口 |⑤-⑥⑦|
6
口口口口 |①---|
②口口口 |--②-|
口口口③ |----|
口口①口 |③---|
7
口口口口 |--①-|
口口口口 |----|
口口口口 |----|
①口口口 |----|
8
口口口口 |①-②-|
①③⑤⑦ |③-④-|
②④⑥口 |⑤-⑥-|
⑧⑨口口 |⑦-⑧⑨|
9
口口口口 |①---|
口口口③ |--②-|
②口口口 |----|
口口①口 |③---|
10
口①口口 |--①-|
口口②口 |----|
口口③口 |②---|
口口口口 |③---|
11
口口③口 |①---|
④②口口 |②---|
口①⑤口 |③-④-|
⑥⑦口口 |⑤-⑥⑦|
12
口口口口 |①---|
口口口③ |--②-|
②口口口 |----|
口口①口 |③---|
13
口①⑤④ |--①-|
口口口口 |----|
口③②口 |②---|
口口口口 |③-④⑤|
14
口①口口 |①---|
口口口口 |②---|
口口口口
口②口口

口⑤口口
口⑥口口
口口口口 |③---|
口口③④ |④-⑤-⑥-|
15
口口口口 |①---|
口口口口 |----|
口①口口 |----|
口口口口 |----|
16
口口口口 |----|
口口口口 |----|
口口口口 |----|
口口口口 |----|
17
①口口② |--①-|
③口口④ |②-③-|
⑤⑧口⑥ |④-⑤-|
⑦口口口 |⑥-⑦⑧|
18
口口口口 |①---|
③④①口 |②---|
口口口口 |--③-|
口口口② |④---|
19
口口①口 |①---|
口口口口 |②---|
③④口口 |--③-|
口口②口 |④---|
20
③口口① |①---|
④口口口 |②---|
⑤口口口 |--③-|
口口口② |④-⑤-|
21
③口口② |--①-|
口口口① |--②-|
④口⑥口 |--③-|
口口口⑤ |④-⑤⑥|
22
口口口口 |①---|
口①④③ |②---|
口口口口 |--③-|
②口口口 |④---|
23
口①口口 |①---|
口口口口 |②---|
口口④③ |--③-|
口②口口 |④---|
24
①口口③ |①---|
口口口④ |②---|
口口口⑤ |--③-|
②口口口 |④-⑤-|
25
⑦⑥⑤④ |--①-|
口③口口 |--②-|
口口②口 |--③-|
口①口口 |④⑤⑥⑦|
26
口口口口 |①---|
①口口口 |②-③-|
口⑥⑤④ |④-⑤-|
②③口口 |⑥---|
27
口口口① |①---|
口⑥口口 |②-③-|
口口⑤④ |④-⑤-|
②③口口 |⑥---|
28
口口口① |①---|
⑦⑥口口 |②-③-|
口口⑤④ |④-⑤-|
②③口口 |⑥-⑦-|
29
口口①口 |--①-|
口口②③ |②-③-|
口口④口 |--④-|
口⑤口口 |--⑤-|
30
口口口口 |----|
口口口口 |①-②-|
③④⑤口 |③-④-|
口口②① |⑤---|
31
①口口口 |①---|
口口⑥口 |②-③-|
④⑤口口 |④-⑤-|
口口③② |⑥---|
32
①口口口 |①---|
口口⑥⑦ |②-③-|
④⑤口口 |④-⑤-|
口口③② |⑥-⑦-|
33
口①口口 |--①-|
⑤②口口 |②-③-|
口④口口 |--④-|
口口③口 |--⑤-|
34
③口口② |①---|
④口口口 |②---|
口口口口 |----|
口口口① |--③④|
35
口口口② |①---|
口口③口 |②---|
①口④口 |----|
口口口口 |--③④|
36
口口口② |①---|
口口口口 |②---|
口口④口 |--③-|
口③①口 |--④-|
37
口③口口 |--①-|
②口④① |--②-|
口口⑤口 |--③-|
口口⑥口 |④⑤⑥-|
38
②口③口 |①---|
口口④口 |②---|
口口口口 |----|
①口口口 |--③④|
39
②口口口 |①---|
口③口口 |②---|
口④①口 |----|
口口口口 |--③④|
40
②口口口 |①---|
口口口口 |②---|
④口口口 |--③-|
口①③口 |--④-|
41
口②③口 |--①-|
①口口④ |--②-|
口口口口 |--③-|
口口口口 |--④-|
42
口口⑥口 |①-②-|
③口口⑧ |③-④-|
⑦①④口 |⑤-⑥-|
⑤口口② |⑦-⑧-|
43
口⑤⑧② |①-②-|
③口口口 |③-④-|
口口⑥④ |⑤-⑥-|
⑦①口口 |⑦-⑧-|
44
①口口④ |①--②|
②①④⑤ |--③-|
③②⑤口 |----|
口③口口 |④--⑤|
45
口口口口 |--①-|
口口口口 |----|
口口口① |----|
口口①口 |----|
46
口口口口 |①--②|
③口口口 |--③-|
②口口⑤ |----|
①口口④ |④--⑤|
47
口口口口 |--①-|
口口口① |----|
口口口口 |----|
口口口口 |----|
48
①口口④ |①--②|
②口口⑤ |--③-|
口口口口 |----|
③口口口 |④--⑤|
49
口口口口 |--①-|
口口口口 |----|
口口口口 |----|
口口口① |----|
50
口口口口 |①--②|
③口口口 |--③-|
②口口⑤ |----|
①口口④ |④--⑤|
51
口口口口 |--①-|
口口口① |----|
口口口口 |----|
口口口口 |----|
52
口口口口 |①--②|
③口口④ |--③-|
②口口⑤ |----|
①口口口 |④--⑤|
53
口口口② |--①-|
口口③口 |--②-|
口④口⑤ |③-④-|
口口⑥① |⑤-⑥-|
54
口口口口 |①--②|
③口口口 |--③-|
②口口⑤ |----|
①口口④ |④--⑤|
55
口口口口 |--①-|
口口口① |----|
口③②口 |②---|
口口口口 |③---|
56
①口口④ |①--②|
②口口⑤ |--③-|
口口口口 |----|
③口口口 |④--⑤|
57
口口口口 |--①-|
口口口口 |----|
口口③口 |----|
口②口① |②-③-|
58
口口口口 |①--②|
③口口口 |--③-|
②口口⑤ |----|
①口口④ |④--⑤|
59
口②口口 |--①-|
口口口① |--②-|
口口口口 |----|
口口③口 |③---|
60
③口口口 |①--②|
③⑦②口 |--③-|
①⑦②⑥ |--④⑤|
①⑤④⑥ |⑥--⑦|
61
口⑤口① |--①-|
③口口① |--②-|
口口②⑥ |③-④-|
口口④口 |⑤-⑥-|
62
③口口口 |①--②|
③⑦②口 |--③-|
①⑦②⑥ |--④⑤|
①⑤④⑥ |⑥--⑦|
63
口口口① |--①-|
口口口① |----|
口口③口 |----|
口②口口 |--②③|
64
①⑤口⑧ |①-②③|
⑨①⑧② |④-⑤-|
⑩⑦口③ |⑥-⑦-|
口口⑥④ |⑧-⑨⑩|
65
⑤⑨②口 |①-②-|
口⑤口⑥ |③-④-|
口口④⑦ |⑤-⑥⑦|
①③口⑧ |⑧-⑨-|
66
口口⑦③ |①-②-|
④口③口 |③-④⑤|
⑤②⑨口 |⑥-⑦-|
⑥⑧①口 |⑧-⑨-|
67
①③口⑧ |①-②-|
③①口⑥ |③-④-|
⑦⑤口④ |⑤-⑥-|
⑤⑦口② |⑦-⑧-|
68
口口口口 |①---|
口①口口 |----|
口口①口
口口口口

口口口口
口口②口
口口③口 |----|
口口口口 |--②③|
69
口口⑦⑦ |①-②-|
④口口⑦ |③-④-|
口⑥口③ |⑤-⑥-|
②口①⑤ |⑦---|
70
口口口口 |----|
口口口口 |----|
口口口口 |----|
口口口口 |----|
71
口口①口 |----|
口口②口 |①-②-|
④口④口 |③---|
口③口口 |④---|
72
①⑤口⑧ |①-②③|
⑨①⑧② |④-⑤-|
⑩⑦口③ |⑥-⑦-|
口口⑥④ |⑧-⑨⑩|
73
⑤⑨②口 |①-②-|
口⑤口⑥ |③-④-|
口口④⑦ |⑤-⑥⑦|
①③口⑧ |⑧-⑨-|
74
口口口① |①-②-|
②口③⑥ |③-④-|
⑨④口⑦ |⑤-⑥⑦|
口口⑤⑧ |⑧-⑨-|
75
口④口口 |①-②-|
③⑤口口 |③-④⑤|
口⑥②口 |⑥-⑦-|
⑧①⑦口 |⑧---|
76
口口口口 |----|
口口①口 |----|
口口②口 |----|
口口口口 |--①②|
77
口口⑦⑦ |①-②-|
④口口⑦ |③-④-|
口⑥口③ |⑤-⑥-|
②口①⑤ |⑦---|
78
口口口口 |----|
口口口口 |----|
口口口口 |----|
①②口口 |--①②|
79
口口口口 |①---|
口④③② |--②③|
口口口口 |④---|
口口①口 |----|
80
②口②口 |①---|
口②口口 |--②-|
口①③口 |----|
①③①③ |③---|
81
口①口① |--①-|
口口①口 |----|
口口口口 |----|
口口口口 |----|
82
口口口口 |----|
口口口口 |----|
口口口口 |----|
口口口口 |----|
83
口③①口 |①---|
③①③① |--②-|
口②口② |----|
口口②口 |③---|
84
口口口口 |--①-|
口口口口 |----|
①口①口 |----|
口①口口 |----|
85
口①口② |①-②-|
③口④口 |③-④-|
口⑤口⑥ |⑤-⑥-|
⑦口⑧口 |⑦-⑧-|
86
口②口② |①---|
口口②口 |--②-|
口③①口 |----|
③①③① |③---|
87
①③①② |--①-|
口①口口 |----|
口口口口 |----|
口口口口 |②-③-|
88
口口口口 |①-②-|
②口①口 |③-④-|
⑧④⑦③ |⑤-⑥-|
⑥口⑤口 |⑦-⑧-|
89
口③①口 |①---|
③①③① |--②-|
口②口② |----|
口口②口 |③---|
90
口口口口 |--①-|
口口口口 |----|
①口①口
口①口口

口口口口
口口口口
口口口口 |----|
②③口口 |--②③|
91
口②口口 |①---|
口③口口 |----|
口④口口 |----|
口口①口 |②-③-④-|
92
口口口口 |①---|
口口口口 |----|
口口口口 |----|
口①口口 |----|

不確定度: 0

最終更新:2017年06月24日 03:16