Against the vulgar aggressor
GUHROOVY

BASIC

Level: 4
BPM: 210
Notes: 238

1
口口口口 |----|
口口口口 |----|
口口口口 |----|
口口口口 |----|
2
口口口口 |①---|
口口口口 |----|
口①口口 |----|
口口口口 |----|
3
口口口口 |----|
口口口口 |----|
口口口口 |----|
口口口口 |----|
4
口口口口 |①---|
口口口口 |----|
口口①口 |----|
口口口口 |----|
5
口口口口 |----|
口口口口 |----|
口口口口 |----|
口口口口 |----|
6
口口口口 |①---|
口①①口 |----|
口口口口 |----|
口口口口 |----|
7
口口口口 |----|
口口口口 |----|
口口口口 |----|
口口口口 |----|
8
口口口口 |①---|
口口口口 |----|
口①①口 |----|
口口口口 |----|
9
口口口口 |①---|
口口口口 |②---|
①②③④ |③---|
口口口口 |④---|
10
①口口② |①---|
口口口口 |----|
口口口口 |②---|
口口口口 |----|
11
口口口口 |①---|
①口口② |----|
口口口口 |②---|
口口口口 |----|
12
口口口口 |①---|
口口口口 |----|
口口口口 |----|
口①①口 |----|
13
口口口口 |①---|
①口口② |----|
口口口口 |②---|
口口口口 |----|
14
口口口口 |①---|
口口口口 |----|
口①①口 |----|
口口口口 |----|
15
①口口② |①---|
口口口口 |----|
口口口口 |②---|
口口口口 |----|
16
口口口口 |①---|
口口口口 |----|
口口口口 |----|
口①①口 |----|
17
口口口口 |①---|
②口口② |----|
①口口① |②---|
口口口口 |----|
18
口①①口 |①---|
口①①口 |----|
口口口口 |----|
口口口口 |----|
19
口口口口 |----|
口口口口 |----|
口口口口 |----|
口口口口 |----|
20
口口口口 |①---|
口口口口 |----|
口①①口 |----|
口①①口 |----|
21
口口口口 |----|
口口口口 |----|
口口口口 |----|
口口口口 |----|
22
口①①口 |①---|
口①①口 |----|
口口口口 |----|
口口口口 |----|
23
口口口口 |----|
口口口口 |----|
口口口口 |----|
口口口口 |----|
24
口口口口 |①---|
③口口③ |----|
②①①② |②---|
口①①口 |③---|
25
①口口① |①---|
口口口口 |----|
口口口口 |----|
口口口口 |----|
26
口口口口 |①---|
口①口口 |----|
口口口口 |----|
口口口口 |----|
27
口口口口 |①---|
口口口口 |----|
①口口口 |----|
口口口口 |----|
28
口口口口 |①---|
口口口口 |----|
口①口口 |----|
口口口口 |----|
29
口口口口 |①---|
①口口口 |----|
口口口口 |----|
口口口口 |----|
30
口口口口 |①---|
口口①口 |----|
口口口口 |----|
口口口口 |----|
31
口口口口 |①---|
口口口口 |----|
口口口① |----|
口口口口 |----|
32
口口口口 |①---|
口口口口 |----|
口口①口 |----|
口口口口 |----|
33
口口口口 |①---|
口口口① |----|
口口口口 |----|
口口口口 |----|
34
口口口口 |①---|
口口口口 |----|
口①①口 |----|
口口口口 |----|
35
口口口口 |①---|
①口口① |----|
口口口口 |----|
口口口口 |----|
36
口口口口 |①---|
口口口口 |----|
①口口① |----|
口口口口 |----|
37
口口口口 |①---|
口①①口 |----|
口口口口 |----|
口口口口 |----|
38
口口口口 |①---|
口口口口 |----|
口①①口 |----|
口口口口 |----|
39
口口口口 |①---|
口①①口 |----|
口口口口 |----|
口口口口 |----|
40
口口口口 |①---|
口口口口 |----|
①①①① |----|
口口口口 |----|
41
③口口③ |①---|
②口口② |②---|
①口口① |③---|
口口口口 |----|
42
口口口口 |----|
口口口口 |----|
口口口口 |----|
口口口口 |----|
43
口口口口 |----|
口口口口 |----|
口口口口 |----|
口口口口 |----|
44
口口口口 |----|
口口口口 |----|
口口口口 |----|
口口口口 |----|
45
口口口口 |----|
口口口口 |----|
口口口口 |----|
口口口口 |----|
46
口口口口 |----|
口口口口 |----|
口口口口 |----|
口口口口 |----|
47
口口口口 |----|
口口口口 |----|
口口口口 |----|
口口口口 |----|
48
口口口口 |----|
口口口口 |----|
口口口口 |----|
口口口口 |----|
49
口口口口 |----|
口口口口 |----|
口口口口 |----|
口口口口 |----|
50
口口口口 |①---|
口口口口 |----|
口①②口 |②---|
口口口口 |----|
51
口口口口 |①---|
口②①口 |----|
口口口口 |②---|
口口口口 |----|
52
口口口口 |①---|
口口口口 |----|
口①②口 |②---|
口口口口 |----|
53
口口口口 |①---|
口②①口 |----|
口口口口 |②---|
口口口口 |----|
54
口口口口 |①---|
口口口口 |----|
口①②口 |②---|
口口口口 |----|
55
口口口口 |①---|
口②①口 |----|
口口口口 |②---|
口口口口 |----|
56
口口口口 |①---|
口口口口 |----|
口①②口 |②---|
口口口口 |----|
57
口口口口 |①---|
口②①口 |----|
口口口口 |②---|
口口口口 |----|
58
①口口① |①---|
口口口口 |----|
口口口口 |----|
口口口口 |----|
59
口口口口 |----|
口口口口 |----|
口口口口 |----|
口口口口 |----|
60
①口口① |①---|
口口口口 |----|
口口口口 |----|
口口口口 |----|
61
口口口口 |----|
口口口口 |----|
口口口口 |----|
口口口口 |----|
62
口口口口 |①---|
口口口口 |----|
①口口① |----|
口口口口 |----|
63
口口口口 |①---|
口口口口 |----|
口①①口 |----|
口口口口 |----|
64
口口口口 |①---|
口口口口 |----|
①口口① |----|
口口口口 |----|
65
口口口口 |①---|
口①①口 |----|
口口口口 |----|
口口口口 |----|
66
①②③④ |①---|
口口口口 |②---|
口口口口 |③---|
口口口口 |④---|
67
口口口口 |①---|
口口口① |----|
口口②口 |②---|
口口口口 |----|
68
口口口口 |①---|
口口口口 |②---|
口口口口 |③---|
④③②① |④---|
69
口口口口 |①---|
口②口口 |----|
①口口口 |②---|
口口口口 |----|
70
①②③④ |①---|
口口口口 |②---|
口口口口 |③---|
口口口口 |④---|
71
口口口口 |①---|
口口口① |----|
口口②口 |②---|
口口口口 |----|
72
口口口口 |①---|
口口口口 |②---|
口口口口 |③---|
④③②① |④---|
73
口③③口 |①---|
口②②口 |②---|
口①①口 |③---|
口口口口 |----|
74
口口口口 |①---|
口口口口 |②---|
口口口口 |③---|
④③②① |④---|
75
口口口口 |①---|
口口口口 |----|
①口②口 |②---|
口口口口 |----|
76
①②③④ |①---|
口口口口 |②---|
口口口口 |③---|
口口口口 |④---|
77
口口口口 |①---|
口②口① |----|
口口口口 |②---|
口口口口 |----|
78
①①口口 |①---|
口口口③ |----|
口口口② |②---|
口口口口 |③---|
79
口口①① |①---|
③口口口 |----|
②口口口 |②---|
口口口口 |③---|
80
口口口口 |①---|
口②②口 |----|
口①①口 |②---|
口口口口 |----|
81
④口口④ |①---|
③口口③ |②---|
②口口② |③---|
①口口① |④---|
82
口口口口 |①---|
口①②口 |----|
口口口口 |②---|
口口口口 |----|
83
口口口口 |①---|
口口口口 |----|
口①②口 |②---|
口口口口 |----|
84
口口口口 |①---|
①口口② |----|
口口口口 |②---|
口口口口 |----|
85
口口口口 |①---|
口口口口 |----|
①口口② |②---|
口口口口 |----|
86
口口口口 |①---|
口①②口 |----|
口口口口 |②---|
口口口口 |----|
87
口口口口 |①---|
口口口口 |----|
口①②口 |②---|
口口口口 |----|
88
口口口口 |①---|
口口口口 |----|
①口口① |②---|
口②②口 |----|
89
②口口② |①---|
口口口口 |----|
口口口口 |②---|
①口口① |----|
90
口口口③ |①---|
口口口③ |②---|
①②口口 |③---|
口口口口 |----|
91
③口口口 |①---|
③口口口 |②---|
口口②① |③---|
口口口口 |----|
92
口口口③ |①---|
口口口③ |②---|
①②口口 |③---|
口口口口 |----|
93
③口口口 |①---|
③口口口 |②---|
口口②① |③---|
口口口口 |----|
94
口口④③ |①---|
口口④③ |②---|
①②口口 |③---|
①②口口 |④---|
95
③④口口 |①---|
③④口口 |②---|
口口②① |③---|
口口②① |④---|
96
口口口口 |①---|
③④②① |②---|
口口口口 |③---|
③④②① |④---|
97
③④②① |①---|
口口口口 |②---|
③④②① |③---|
口口口口 |④---|
98
口口口口 |①---|
口①①口 |----|
口口口口 |----|
口口口口 |----|

不確定度: 0

最終更新:2017年06月21日 21:18