Against the vulgar aggressor
GUHROOVY

ADVANCED

Level: 7
BPM: 210
Notes: 480

1
口口口口 |----|
口口口口 |----|
口口口口 |----|
口口口口 |----|
2
口口③口 |①-②-|
口②口口 |③---|
口口①口 |----|
口口口口 |----|
3
口口口口 |----|
口口口口 |----|
口口口口 |----|
口①②口 |--①②|
4
口口③口 |①-②-|
口②口口 |③---|
口口①口 |----|
口口口口 |----|
5
口口口口 |----|
口口口口 |----|
口口口口 |----|
口口口口 |----|
6
口口③口 |①-②-|
④②口⑤ |③---|
口口①口 |④---|
口口口口 |⑤---|
7
口口口口 |①---|
③口口④ |②---|
①口口② |③---|
口口口口 |④---|
8
口口③口 |①-②-|
口②口口 |③---|
④口①⑤ |④---|
口口口口 |⑤---|
9
口口口口 |①---|
①口口② |②---|
③口口④ |③---|
口口口口 |④---|
10
⑦口③口 |①-②-|
口②口⑥ |③---|
⑤口①口 |④-⑤-|
口口口④ |⑥-⑦-|
11
口②口口 |--①-|
口口③口 |--②-|
口④口口 |③-④-|
口①⑤口 |⑤---|
12
⑦口③口 |①-②-|
口②口⑥ |③---|
⑤口①口 |④-⑤-|
口口口④ |⑥-⑦-|
13
口②口口 |--①-|
口口③口 |--②-|
口口口口 |③---|
口①④口 |④---|
14
⑦口③口 |①-②-|
口②口⑥ |③---|
⑤口①口 |④-⑤-|
口口口④ |⑥-⑦-|
15
口②口口 |--①-|
口口口⑤ |--②-|
④口口⑤ |③-④-|
口①③口 |⑤---|
16
⑦口③口 |①-②-|
口②口⑥ |③---|
⑤口①口 |④-⑤-|
口口口④ |⑥-⑦-|
17
口口②口 |--①-|
口①口口 |----|
口①②口 |②---|
口③③口 |③---|
18
④⑤口口 |①---|
③口口口 |②---|
②口口口 |③---|
①口口口 |④-⑤-|
19
口口口口 |----|
口口口口 |----|
口口①口 |----|
口口口口 |①---|
20
口口④口 |①---|
口口口③ |②---|
口口口② |③---|
口口口① |--④-|
21
口口口口 |--①-|
③口①③ |----|
口②②口 |----|
口口口口 |②-③-|
22
①口口① |①---|
口④口口 |----|
口口③口 |②---|
②口口② |③-④-|
23
②口①② |①---|
口口口口 |②---|
口口口口 |----|
③③③③ |③---|
24
口口口口 |①---|
①①①① |----|
②②②② |②---|
③③③③ |③---|
25
①①①① |①---|
口口口口 |----|
口口口口 |----|
口口口口 |----|
26
口口口口 |----|
口口口口 |①---|
口①②③ |②---|
口口口口 |③---|
27
口口③口 |--①-|
口口①② |----|
口口口③ |②---|
口口②① |--③-|
28
口口口口 |----|
口口口口 |①---|
③②①口 |②---|
口口口口 |③---|
29
口③口口 |--①-|
②①口口 |----|
③口口口 |②---|
①②口口 |--③-|
30
口口口口 |----|
口口口口 |①---|
口①②③ |②---|
口口口口 |③---|
31
口口③口 |--①-|
口口①② |----|
口口口③ |②---|
口口②① |--③-|
32
口口口口 |----|
口口口口 |①---|
③②①口 |②---|
口口口口 |③---|
33
口⑥口口 |①-②-|
③口②① |--③-|
口口口口 |④-⑤-|
口口⑤④ |--⑥-|
34
口口口口 |----|
口口口口 |①---|
口①②③ |②---|
口口口口 |③---|
35
口口③口 |--①-|
口口①② |----|
口口口③ |②---|
口口②① |--③-|
36
口口口口 |----|
口口口口 |①---|
③②①口 |②---|
口口口口 |③---|
37
口③口口 |--①-|
②①口口 |----|
③口口口 |②---|
①②口口 |--③-|
38
口口口口 |----|
口口口口 |①---|
口①②③ |②---|
口口口口 |③---|
39
口口③口 |--①-|
口口①② |----|
口口口③ |②---|
口口②① |--③-|
40
③口口③ |①---|
④口口④ |②-③-|
口①①口 |--④-|
②⑤⑤② |--⑤-|
41
口口口口 |--①-|
口口口口 |②-③-|
①②③④ |④---|
口口口口 |----|
42
①②口口 |①---|
口口口口 |----|
口口口口 |②---|
口口口口 |----|
43
口口①② |①---|
口口口口 |----|
口口口口 |②---|
口口口口 |----|
44
口口口口 |①---|
①②口口 |----|
口口口口 |②---|
口口口口 |----|
45
口口口口 |①---|
口口①② |----|
口口口口 |②---|
口口口口 |----|
46
口口口口 |①---|
口口口口 |----|
①②口口 |②---|
口口口口 |----|
47
口口口口 |①---|
口口口口 |----|
口口①② |②---|
口口口口 |----|
48
口口口口 |①---|
口口口口 |----|
口口口口 |②---|
①②口口 |----|
49
口口口口 |①---|
口口口口 |----|
口口口口 |②---|
口口①② |----|
50
口②口口 |①---|
口①口口 |----|
口口口口 |②---|
口口口口 |----|
51
口口口口 |①---|
①口口口 |----|
口②口口 |②---|
口口口口 |----|
52
口口②口 |①---|
口口①口 |----|
口口口口 |②---|
口口口口 |----|
53
口口口口 |①---|
口口口① |----|
口口②口 |②---|
口口口口 |----|
54
口②②口 |①---|
口①①口 |----|
口口口口 |②---|
口口口口 |----|
55
口口口口 |①---|
①口口① |----|
口②②口 |②---|
口口口口 |----|
56
②口口② |①---|
口①①口 |----|
口口口口 |②---|
口口口口 |----|
57
口口口口 |①---|
口②②口 |----|
①口口① |②---|
口口口口 |----|
58
②口口④ |①---|
口口口口 |②---|
①口口③ |③---|
口口口口 |④---|
59
口②④口 |①---|
口口口口 |②---|
口①③口 |③---|
口口口口 |④---|
60
口口口口 |①---|
②口口④ |②---|
口口口口 |③---|
①口口③ |④---|
61
口口口口 |①---|
口②④口 |②---|
口口口口 |③---|
口①③口 |④---|
62
②②②② |①---|
口口口口 |--②-|
①①①① |----|
口口口口 |----|
63
口口口口 |①---|
②②②② |--②-|
口口口口 |----|
①①①① |----|
64
②②②② |①---|
口口口口 |--②-|
①①①① |----|
口口口口 |----|
65
口④④口 |①---|
口②②口 |②---|
口③③口 |③---|
①①①① |④---|
66
口⑤口口 |①---|
口③④口 |②---|
②口口② |③-④-|
①口口① |--⑤-|
67
⑤口①⑤ |①---|
口口口口 |②-③-|
④②③④ |--④-|
口口口口 |--⑤-|
68
口④口口 |--①-|
口口口口 |----|
口②③口 |②-③-|
①口口① |--④-|
69
口口①口 |①---|
⑤②③⑤ |②-③-|
口口口口 |--④-|
④口口④ |--⑤-|
70
口④口口 |--①-|
口口口口 |----|
①②③① |②-③-|
口口口口 |--④-|
71
口口①口 |①---|
⑤②③⑤ |②-③-|
口口口口 |--④-|
④口口④ |--⑤-|
72
口④口口 |--①-|
口口口口 |----|
①②③① |②-③-|
口口口口 |--④-|
73
①口口① |①---|
②口口② |②---|
③口口③ |③---|
口③③口 |----|
74
①口口① |--①-|
口④口口 |----|
口②③口 |②-③-|
口口口口 |--④-|
75
口口口口 |①---|
⑤口①⑤ |②-③-|
④口口④ |--④-|
口②③口 |--⑤-|
76
①口口① |--①-|
口④口口 |----|
口②③口 |②-③-|
口口口口 |--④-|
77
口口口口 |①---|
口口①口 |②-③-|
④口口④ |--④-|
口②③口 |----|
78
①口口① |--①-|
口②③口 |----|
口④口口 |②-③-|
口口口口 |--④-|
79
④口口④ |①---|
口⑤⑤口 |②-③-|
④口①④ |--④-|
口②③口 |--⑤-|
80
口口口口 |--①-|
④口口④ |----|
口②③口 |②-③-|
①口口① |--④-|
81
②④④② |--①-|
口口口口 |--②-|
③口口③ |--③-|
①口口① |--④-|
82
口口口口 |①---|
①②③④ |②---|
口口口口 |③---|
口口口口 |④---|
83
口口口口 |①---|
口口口口 |②---|
①②③④ |③---|
口口口⑤ |④-⑤-|
84
①②③④ |①---|
①②③④ |②---|
口口口口 |③---|
口口口口 |④---|
85
口口口口 |①---|
口③口⑥ |②-③-|
①②④⑤ |④---|
①口④口 |⑤-⑥-|
86
①②③④ |①---|
口口口口 |②---|
口口口口 |③---|
口口口口 |④---|
87
口口口口 |①---|
①②③④ |②---|
口口口口 |③---|
口口口口 |④---|
88
口口口口 |①---|
口口口口 |----|
③①①③ |②-③-|
②④④② |--④-|
89
③口口③ |--①-|
②口口② |②---|
口①①口 |③---|
口口口口 |----|
90
口口口口 |①---|
口口口③ |②---|
①②口口 |③---|
口口口③ |----|
91
口口口口 |①---|
③口口口 |②---|
口口②① |③---|
③口口口 |----|
92
口口口口 |①---|
口口口③ |②---|
①②口口 |③---|
口口口③ |----|
93
口口口口 |①---|
③口口口 |②---|
口口②① |③---|
③口口口 |----|
94
口口口口 |①---|
口口③④ |②---|
①②口口 |③---|
口口③④ |④---|
95
口口口口 |①---|
口口口口 |②---|
④③②① |③---|
口口口口 |④---|
96
口口口口 |①---|
①②③④ |②---|
口口口口 |③---|
①②③④ |④---|
97
口口口口 |①---|
④③③④ |②---|
②①①② |③---|
口口口口 |④---|
98
口口口口 |①---|
口口口口 |----|
口①①口 |----|
口①①口 |----|

不確定度: 0

最終更新:2017年06月21日 21:18