Ryu✩ feat.青龍

BASIC

Level: 4
BPM: 191
Notes: 212

1
口口口口 |----|
口口口口 |----|
口口口口 |----|
口口口口 |----|
2
口口口口 |----|
口口口口 |----|
口口口口 |----|
口口口口 |----|
3
口口口口 |----|
口口口口 |----|
口口口口 |----|
口口口口 |----|
4
口口口口 |----|
口口口口 |----|
口口口口 |----|
口口口口 |----|
5
口口口口 |----|
口口口口 |----|
口口口口 |----|
口口口口 |----|
6
口口口口 |----|
口口口口 |----|
口口口口 |----|
口口口口 |----|
7
口口口口 |①---|
口①①口 |----|
口口口口 |----|
口口口口 |----|
8
口口口口 |①---|
口口口口 |----|
口①①口 |----|
口口口口 |----|
9
口口口口 |①---|
口①①口 |----|
口口口口 |----|
口口口口 |----|
10
口口口口 |①---|
口口口口 |----|
口①①口 |----|
口口口口 |----|
11
④口口口 |①---|
③口口口 |②---|
②口口口 |③---|
①口口口 |④---|
12
口口口④ |①---|
口口口③ |②---|
口口口② |③---|
口口口① |④---|
13
口④口口 |①---|
口③口口 |②---|
口②口口 |③---|
口①口口 |④---|
14
口口④口 |①---|
口口③口 |②---|
口口②口 |③---|
口口①口 |④---|
15
口口口口 |①---|
口口口口 |----|
口②②口 |②---|
口①①口 |----|
16
②口口② |①---|
①口口① |----|
口口口口 |②---|
口口口口 |----|
17
口口口口 |①---|
口口口口 |②---|
口③④口 |③---|
口①②口 |④---|
18
③口口④ |①---|
②口口口 |②---|
①口口口 |③---|
口口口口 |④---|
19
口口口口 |①---|
口①口口 |----|
口口口口 |----|
口口口口 |----|
20
②口口口 |①---|
口口①口 |----|
口口口口 |----|
口口口口 |②---|
21
口口口口 |①---|
口口口口 |----|
口①口口 |----|
口口口口 |----|
22
口②口口 |①---|
口口口口 |----|
口口①口 |----|
口口口口 |②---|
23
口口口口 |①---|
口①口口 |----|
口口口口 |----|
口口口口 |----|
24
口口口口 |①---|
口口①口 |----|
口口口口 |----|
口口口口 |----|
25
②④口口 |①---|
口口口口 |②---|
口①③口 |③---|
口口口口 |④---|
26
口口口④ |①---|
①②③口 |②---|
口口口口 |③---|
口口口口 |④---|
27
口口口口 |①---|
①口口口 |----|
①口口口 |----|
口口口口 |----|
28
口口口口 |①---|
口①口口 |----|
口①口口 |----|
口口口口 |----|
29
口口口口 |①---|
口口①口 |----|
口口①口 |----|
口口口口 |----|
30
口口口口 |①---|
口口口① |----|
口口口① |----|
口口口口 |----|
31
口口口口 |①---|
①②③④ |②---|
口口口口 |③---|
口口口口 |④---|
32
口口口口 |①---|
口口口口 |②---|
①②③④ |③---|
口口口口 |④---|
33
口口口口 |①---|
①②③④ |②---|
口口口口 |③---|
口口口口 |④---|
34
口①①口 |①---|
口口口口 |----|
口口口口 |----|
口口口口 |----|
35
口口口口 |①---|
口口口口 |----|
①口口口 |----|
口口口口 |----|
36
口口口口 |①---|
口口口口 |----|
口①口口 |----|
口口口口 |----|
37
口口口口 |①---|
口口口口 |----|
口口①口 |----|
口口口口 |----|
38
口口口口 |①---|
口口口口 |----|
口口口① |----|
口口口口 |----|
39
口①②口 |①---|
口③④口 |②---|
口口口口 |③---|
口口口口 |④---|
40
口口口口 |①---|
口口口口 |②---|
口①②口 |③---|
口③④口 |④---|
41
口①②口 |①---|
口③④口 |②---|
口口口口 |③---|
口口口口 |④---|
42
口口口口 |①---|
口口口口 |②---|
口①②口 |③---|
口③④口 |④---|
43
④口口口 |①---|
③口口口 |②---|
②口口口 |③---|
①口口口 |④---|
44
口口口④ |①---|
口口口③ |②---|
口口口② |③---|
口口口① |④---|
45
口④口口 |①---|
口③口口 |②---|
口②口口 |③---|
口①口口 |④---|
46
口口④口 |①---|
口口③口 |②---|
口口②口 |③---|
口口①口 |④---|
47
口口口口 |①---|
口口口口 |----|
口②②口 |②---|
口①①口 |----|
48
②口口② |①---|
①口口① |----|
口口口口 |②---|
口口口口 |----|
49
口口口口 |①---|
口口口口 |②---|
口③④口 |③---|
口①②口 |④---|
50
③口口④ |①---|
②口口口 |②---|
①口口口 |③---|
口口口口 |④---|
51
口口口口 |①---|
口口口口 |----|
口口口口 |----|
口①①口 |----|
52
口②②口 |①---|
口①①口 |----|
口口口口 |②---|
口口口口 |----|
53
口口口口 |①---|
口口口口 |----|
口口口口 |----|
①口口① |----|
54
②口口② |①---|
①口口① |----|
口口口口 |②---|
口口口口 |----|
55
口口口口 |①---|
口口口口 |----|
口口口口 |----|
口①①口 |----|
56
口②②口 |①---|
口①①口 |----|
口口口口 |②---|
口口口口 |----|
57
②④口口 |①---|
口口口口 |②---|
口①③口 |③---|
口口口口 |④---|
58
口口口④ |①---|
①②③口 |②---|
口口口口 |③---|
口口口口 |④---|
59
④口口口 |①---|
③口口口 |②---|
②口口口 |③---|
①口口口 |④---|
60
口口口④ |①---|
口口口③ |②---|
口口口② |③---|
口口口① |④---|
61
口④口口 |①---|
口③口口 |②---|
口②口口 |③---|
口①口口 |④---|
62
口口④口 |①---|
口口③口 |②---|
口口②口 |③---|
口口①口 |④---|
63
口口口口 |①---|
口口口口 |----|
口②②口 |②---|
口①①口 |----|
64
②口口② |①---|
①口口① |----|
口口口口 |②---|
口口口口 |----|
65
口口口口 |①---|
口口口口 |②---|
口③④口 |③---|
口①②口 |④---|
66
③口口④ |①---|
②口口口 |②---|
①口口口 |③---|
口口口口 |④---|
67
④口口口 |①---|
③口口口 |②---|
②口口口 |③---|
①口口口 |④---|
68
口口口口 |----|
口口口口 |----|
口口口口 |----|
口口口口 |----|
69
口口口④ |①---|
口口口③ |②---|
口口口② |③---|
口口口① |④---|
70
口口口口 |----|
口口口口 |----|
口口口口 |----|
口口口口 |----|
71
口口口口 |①---|
口口口口 |----|
口②②口 |②---|
口①①口 |----|
72
②口口② |①---|
①口口① |----|
口口口口 |②---|
口口口口 |----|
73
口口口口 |①---|
口口口口 |②---|
口③④口 |③---|
口①②口 |④---|
74
③口口④ |①---|
②口口口 |②---|
①口口口 |③---|
口口口口 |④---|

不確定度: 0

最終更新:2017年06月21日 21:15